Loading...
Error

Скачать Время прощания / Le temps qui reste (Франсуа Озон) [2005, драма, DVDRip-AVC] [MVO]+[Sub]x2 торрент без регистрации

 
Статистика раздачи
Размер:  1,36 GB   |    Скачан:  48 раз
Сидов:  1  [  0 KB/s  ]  
 
Автор Сообщение

Marsianka

[] 

Информация о фильме
Название: Время прощания
Оригинальное название: Le temps qui reste
Год выхода: 2005
Жанр: драма
Режиссер: Франсуа Озон / Franсois Ozon
В ролях: Валерия Бруни Тедески, Жанна Моро, Мельвиль Пупо, Мари Ривер

О фильме:
Молодой успешный фотограф узнает, что он смертельно болен. Это известие заставляет его пересмотреть свою жизнь и отношения с близкими ему людьми — молодым любовником, сестрой, с которой они находятся в долгой затяжной ссоре, родителями. Он решается согласиться на странную просьбу незнакомых ему бездетных людей стать биологическим отцом их ребенка.


Страна: Франция
Студия: Fidélité Productions, France 2 Cinéma, StudioCanal
Продолжительность: 01:17:38.000
Перевод: Профессиональный (многоголосый, закадровый) R5

Файл
Кодек: h.264
Качество: DVDRip-AVC
Видео: 720x432 (2.37:1) @ 1024x432, 25.000 fps, AVC, ~1681 Kbps, 0.216 bits/pixel

Русский, 48.0 KHz, AC3, 6 ch, 384 Kbps
Французский, 48.0 KHz, AC3, 6 ch, 448 Kbps
Субтитры:
Английские, VobSub
Русские,SRT(UTF-8)
Исходник R2
General
Unique ID : 194312661011732459090830952195104849547 (0x922F41DA95FDAC7EB54A35CB04963E8B)
Complete name : I:FilmsVremya_proschaniya.2005.DVDRip-AVC.mkv
Format : Matroska
Format version : Version 4 / Version 2
File size : 1.36 GiB
Duration : 1h 17mn
Overall bit rate : 2 515 Kbps
Encoded date : UTC 2015-11-14 07:32:59
Writing application : mkvmerge v8.5.2 ('Crosses') 64bit
Writing library : libebml v1.3.3 + libmatroska v1.4.4
DURATION : 01:04:08.382000000
NUMBER_OF_FRAMES : 395
NUMBER_OF_BYTES : 33956
_STATISTICS_WRITING_APP : mkvmerge v8.5.2 ('Crosses') 64bit
_STATISTICS_WRITING_DATE_UTC : 2015-11-14 07:32:59
_STATISTICS_TAGS : BPS DURATION NUMBER_OF_FRAMES NUMBER_OF_BYTES

Video
ID : 1
Format : AVC
Format/Info : Advanced Video Codec
Format profile : High@L4.1
Format settings, CABAC : Yes
Format settings, ReFrames : 11 frames
Codec ID : V_MPEG4/ISO/AVC
Duration : 1h 17mn
Bit rate : 1 681 Kbps
Width : 720 pixels
Height : 432 pixels
Display aspect ratio : 2.40:1
Frame rate mode : Constant
Frame rate : 25.000 fps
Color space : YUV
Chroma subsampling : 4:2:0
Bit depth : 8 bits
Scan type : Progressive
Bits/(Pixel*Frame) : 0.216
Stream size : 907 MiB (65%)
Writing library : x264 core 146 r2538 121396c
Encoding settings : cabac=1 / ref=11 / deblock=1:0:0 / analyse=0x3:0x133 / me=umh / subme=11 / psy=1 / psy_rd=1.10:0.15 / mixed_ref=1 / me_range=48 / chroma_me=1 / trellis=2 / 8x8dct=1 / cqm=0 / deadzone=21,11 / fast_pskip=0 / chroma_qp_offset=-3 / threads=8 / lookahead_threads=2 / sliced_threads=0 / nr=0 / decimate=0 / interlaced=0 / bluray_compat=0 / constrained_intra=0 / bframes=10 / b_pyramid=2 / b_adapt=2 / b_bias=0 / direct=3 / weightb=1 / open_gop=0 / weightp=2 / keyint=250 / keyint_min=25 / scenecut=40 / intra_refresh=0 / rc_lookahead=60 / rc=2pass / mbtree=0 / bitrate=1681 / ratetol=1.0 / qcomp=0.60 / qpmin=0 / qpmax=69 / qpstep=4 / cplxblur=20.0 / qblur=0.5 / vbv_maxrate=40000 / vbv_bufsize=50000 / nal_hrd=none / filler=0 / ip_ratio=1.40 / pb_ratio=1.30 / aq=1:1.00
Default : No
Forced : No
Color range : Limited
Matrix coefficients : BT.601

Audio #1
ID : 2
Format : AC-3
Format/Info : Audio Coding 3
Mode extension : CM (complete main)
Format settings, Endianness : Big
Codec ID : A_AC3
Duration : 1h 17mn
Bit rate mode : Constant
Bit rate : 384 Kbps
Channel(s) : 6 channels
Channel positions : Front: L C R, Side: L R, LFE
Sampling rate : 48.0 KHz
Compression mode : Lossy
Stream size : 213 MiB (15%)
Language : Russian
Default : Yes
Forced : No

Audio #2
ID : 3
Format : AC-3
Format/Info : Audio Coding 3
Mode extension : CM (complete main)
Format settings, Endianness : Big
Codec ID : A_AC3
Duration : 1h 17mn
Bit rate mode : Constant
Bit rate : 448 Kbps
Channel(s) : 6 channels
Channel positions : Front: L C R, Side: L R, LFE
Sampling rate : 48.0 KHz
Compression mode : Lossy
Stream size : 249 MiB (18%)
Language : French
Default : No
Forced : No

Text #1
ID : 4
Format : VobSub
Muxing mode : zlib
Codec ID : S_VOBSUB
Codec ID/Info : Picture based subtitle format used on DVDs
Language : English
Default : No
Forced : No

Text #2
ID : 5
Format : UTF-8
Codec ID : S_TEXT/UTF8
Codec ID/Info : UTF-8 Plain Text
Language : Russian
Default : No
Forced : No

Menu
00:00:00.000 : en:Chapter 01
00:08:32.560 : en:Chapter 02
00:18:42.960 : en:Chapter 03
00:27:03.600 : en:Chapter 04
00:37:52.000 : en:Chapter 05
00:45:39.600 : en:Chapter 06
00:54:18.240 : en:Chapter 07
01:01:35.960 : en:Chapter 08
01:08:48.520 : en:Chapter 09
01:14:10.600 : en:Chapter 10
frame I:634 Avg QP:17.01 size: 40175
frame P:22185 Avg QP:19.76 size: 16891
frame B:93631 Avg QP:21.51 size: 6173
Релиз от: Temperest



Скачать Время.прощания.Le.temps.qui.reste.(Франсуа.Озон).[2005.драма.DVDRip-AVC].[MVO]+[Sub]x2.torrent без регистрации
Золото ЗОЛОТАЯ РАЗДАЧА! СКАЧАННОЕ НЕ ЗАСЧИТЫВАЕТСЯ! Золото
Дата: Зарегистрирован   [ Тип: внутренний ] Как тут cкачать?
MAGNET ссылка
MAGNET ссылка


Скачать .torrent

14 KB

Статус: проверено DHT
Скачан: торрент - 48 раз, раздача полностью - 27 раз
Размер: 1,36 GB
Оценка:  - (Голосов: 0)
Поблагодарили: 1
Поделиться ссылкой на эту раздачу с друзьями:
В контактеFacebookОдноклассникиTwitterLivejournalМой МирLiveinternet
 

 
Показать сообщения:    


Вы не можете начинать темы
Вы не можете отвечать на сообщения
Вы не можете редактировать свои сообщения
Вы не можете удалять свои сообщения
Вы не можете голосовать в опросах
Вы не можете прикреплять файлы к сообщениям
Вы можете скачивать файлы