Loading...
Error

Скачать Аладин / Aladin (Суджой Гхош) [2009, фэнтези, боевик, драма, мелодрама, комедия, приключения, WEB-DLRip] [MVO] торрент без регистрации

 
Статистика раздачи
Размер:  1,45 GB   |    Скачан:  92 раза
Сидов:  1  [  0 KB/s  ]  
 
Автор Сообщение

Marsianka

[] 

Аладин / Aladin (2009) WEB-DLRip
Релиз от: ENGINEER

Информация о фильме

Название: Аладин
Оригинальное название: Aladin
Год выхода: 2009
Жанр: фэнтези, боевик, драма, мелодрама, комедия, приключения

Режиссер: Суджой Гхош / Sujoy Ghosh

В ролях: Шубханкар Атре, Амитабх Баччан, Виктор Банерджи, Дхавал Барбхая, Майкл Чен, Мастер Ахан Десаи, Ритеш Дешмукх, Санджай Датт, Эрина, Жаклин Фернандес, Ратна Патхак, Сахил Кхан

О фильме:
Аладин Чаттерджи, живущий в вымышленном городе Желание, сирота, которого с детства третирует Кассим и его банда. Но его жизнь меняется, когда Жасмин дает ему волшебную лампу — в ней живет джин по имени Гений. Джин, желая выполнить три желания и тем самым закончить «контракт» с лампой, создает Аладину трудности до тех пор, пока не появляется угроза со стороны бывшего джина по имени Инспектор манежа.



Страна: Индия
Студия: Baund Motion Piktures
Продолжительность: 02:12:52
Перевод: Русский профессиональный многоголосый (СТС), краткий перевод содержания песен.

Качество: WEB-DLRip
Файл : AVI
Кодек: XviD, build 65 codec
Видео: 720 x 304; 23.976 fps; 1427 kbps; 0.27 bit/pixel
Аудио: 48 kHz; 2 ch; 128.00 kbps; MPEG Layer 3
Размер: 1487.53 Mb (1/3 DVD5)


Format : AVI
Format/Info : Audio Video Interleave
File size : 1.45 GiB
Duration : 2h 12mn
Overall bit rate : 1 565 Kbps
Writing application : VirtualDubMod 1.5.10.3 | www.virtualdub-fr.org || (build 2550/release)
Writing library : VirtualDubMod build 2550/release

Video
ID : 0
Format : MPEG-4 Visual
Format profile : Advanced Simple@L5
Format settings, BVOP : 1
Format settings, QPel : No
Format settings, GMC : No warppoints
Format settings, Matrix : Custom
Codec ID : XVID
Codec ID/Hint : XviD
Duration : 2h 12mn
Bit rate : 1 428 Kbps
Width : 720 pixels
Height : 304 pixels
Display aspect ratio : 2.35:1
Frame rate : 23.976 fps
Color space : YUV
Chroma subsampling : 4:2:0
Bit depth : 8 bits
Scan type : Progressive
Compression mode : Lossy
Bits/(Pixel*Frame) : 0.272
Stream size : 1.33 GiB (91%)
Writing library : XviD 65

Audio
ID : 1
Format : MPEG Audio
Format version : Version 1
Format profile : Layer 3
Mode : Joint stereo
Mode extension : MS Stereo
Codec ID : 55
Codec ID/Hint : MP3
Duration : 2h 12mn
Bit rate mode : Constant
Bit rate : 128 Kbps
Channel(s) : 2 channels
Sampling rate : 48.0 KHz
Compression mode : Lossy
Stream size : 122 MiB (8%)
Alignment : Aligned on interleaves
Interleave, duration : 42 ms (1.00 video frame)
Interleave, preload duration : 504 ms
ПРИЯТНОГО ПРОСМОТРА!



Скачать Аладин.Aladin.(Суджой.Гхош).[2009.фэнтези.боевик.драма.мелодрама.комедия.приключения.WEB-DLRip].[MVO].torrent без регистрации
Золото ЗОЛОТАЯ РАЗДАЧА! СКАЧАННОЕ НЕ ЗАСЧИТЫВАЕТСЯ! Золото
Дата: Зарегистрирован   [ Тип: внутренний ] Как тут cкачать?
MAGNET ссылка
MAGNET ссылка


Скачать .torrent

16 KB

Статус: проверено DHT
Скачан: торрент - 92 раз, раздача полностью - 15 раз
Размер: 1,45 GB
Оценка:  - (Голосов: 0)
Поблагодарили: 2
Поделиться ссылкой на эту раздачу с друзьями:
В контактеFacebookОдноклассникиTwitterLivejournalМой МирLiveinternet
 

 
Показать сообщения:    


Вы не можете начинать темы
Вы не можете отвечать на сообщения
Вы не можете редактировать свои сообщения
Вы не можете удалять свои сообщения
Вы не можете голосовать в опросах
Вы не можете прикреплять файлы к сообщениям
Вы можете скачивать файлы