Loading...
Error

Скачать С.С.Д. (Вадим Шмелев) [2008, ужасы, DVDRip-AVC] [Лицензия] торрент без регистрации

 
Статистика раздачи
Размер:  1,9 GB   |    Скачан:  58 раз
Сидов:  1  [  0 KB/s  ]  
 
Автор Сообщение

МихаНЕзатор

[] 

Слоган: «Ты его видел?»


Информация о фильме
Название: С.С.Д.
Год выхода: 2008
Жанр: ужасы
Режиссер: Вадим Шмелев

В ролях: Анфиса Чехова, Евгения Брик, Игорь Арташонов, Дмитрий Кубасов, Екатерина Копанова, Артём Мазунов, Стас Шмелев, Иван Николаев, Александр Макогон, Вероника Иващенко, Екатерина Носик

О фильме: На телевидении запускается новое реалити-шоу под названием «Пионерлагерь». По итогам кастинга, пятеро юношей и пятеро девушек, во главе с молодой телеведущей Алисой Тен, отправляются в заброшенный пионерский лагерь советских времен.
По правилам, каждую неделю кто-то из участников должен покинуть шоу и вернуться домой. Последний, кто останется на проекте, получит главный приз: один миллион рублей. Но внезапно правила игры меняются: невидимый наблюдатель объявляет, что теперь наградой для победителя будут не деньги, а его собственная жизнь.
Одержимый маньяк, скрывающий свое лицо за маской лошади, выходит на кровавую охоту за участниками реалити-шоу. Детские страшилки, которые он когда-то слушал в пионерлагере, оживают и становятся сюжетом его собственных убийств…



Выпущено: Россия / Красная стрела
Продолжительность: 01:33:19
Перевод: Оригинал Лицензия

Файл
Кодек: MPEG-4 AVC (MKV)
Качество: DVDRip-AVC
Видео: AVC, 2500 Kbps,1024x416
Звук: AC3, 6 ch, 448 Kbps
Субтитры: Русские

АНОНСЫ ПОПУЛЯРНЫХ РАЗДАЧ

> На съемках фильма Анфиса Чехова впервые снялась обнаженной.
> С. С. Д. — так же расшифровывается как: «Смерть Советским Детям», «Самый Страшный День». Все варианты расшифровки названия являются равноправными.
>Это первый российский фильм снятый в жанре «молодежного слэшера».
> В фильме — 14 убийств. Это примерно 1 труп на 7 минут экранного времени.
> Для съемок в фильме «С. С. Д.» изначально выбирали молодых, не раскрученных актеров, типажи которых были бы яркими и абсолютно непохожими друг на друга. Десятку героев возглавляет блистательная телеведущая Анфиса Чехова, исполнившая в картине роль ведущей реалити-шоу Алисы Тен.
> Когда В. Шмелев еще только начинал работать над проектом «С. С. Д.», на форумах и в блогах интернета сразу же появилась расшифровка этой аббревиатуры: «Смерть Советским Детям». Так как в сюжетной линии картины задействовано много детских страшилок из серии «гроб на колесиках», подобная расшифровка так же была заимствована из аналогичной «сказки» про черную-черную машину.
> В одном из эпизодов упоминается имя Валерия Тодоровского. Тодоровский является одним из продюсеров фильма.

General
Unique ID : 220317250886651355461727202144277826273 (0xA5BF8F1F8623590B9B863C5F53890AE1)
Complete name : D:ДИСК�2.ФИЛЬМЫ СНГС.С.Д. (2008)S.S.D. (2008) DVDRip-AVC.mkv
Format : Matroska
Format version : Version 4 / Version 2
File size : 1.90 GiB
Duration : 1h 33mn
Overall bit rate : 2 920 Kbps
Movie name : Release by arhangel&vamo
Encoded date : UTC 2015-11-12 21:36:55
Writing application : mkvmerge v8.2.0 ('World of Adventure') 64bit
Writing library : XviD4PSP 6.0 / 54.29.105
DURATION : 01:30:09.579000000
NUMBER_OF_FRAMES : 846
NUMBER_OF_BYTES : 56359
_STATISTICS_WRITING_APP : mkvmerge v8.2.0 ('World of Adventure') 64bit
_STATISTICS_WRITING_DATE_UTC : 2015-11-12 21:36:55
_STATISTICS_TAGS : BPS DURATION NUMBER_OF_FRAMES NUMBER_OF_BYTES

Video
ID : 1
Format : AVC
Format/Info : Advanced Video Codec
Format profile : High@L4.1
Format settings, CABAC : Yes
Format settings, ReFrames : 7 frames
Codec ID : V_MPEG4/ISO/AVC
Duration : 1h 33mn
Bit rate : 2 500 Kbps
Width : 1 024 pixels
Height : 416 pixels
Display aspect ratio : 2.40:1
Original display aspect ratio : 2.40:1
Frame rate mode : Constant
Frame rate : 25.000 fps
Color space : YUV
Chroma subsampling : 4:2:0
Bit depth : 8 bits
Scan type : Progressive
Bits/(Pixel*Frame) : 0.235
Stream size : 1.57 GiB (83%)
Writing library : x264 core 128 r2216M 198a7ea
Encoding settings : cabac=1 / ref=8 / deblock=1:-3:-3 / analyse=0x3:0x133 / me=umh / subme=8 / psy=1 / psy_rd=1.00:0.20 / mixed_ref=1 / me_range=16 / chroma_me=1 / trellis=2 / 8x8dct=1 / cqm=0 / deadzone=21,11 / fast_pskip=1 / chroma_qp_offset=-3 / threads=8 / lookahead_threads=1 / sliced_threads=0 / nr=0 / decimate=1 / interlaced=0 / bluray_compat=0 / constrained_intra=0 / bframes=8 / b_pyramid=1 / b_adapt=2 / b_bias=0 / direct=3 / weightb=1 / open_gop=0 / weightp=2 / keyint=250 / keyint_min=25 / scenecut=40 / intra_refresh=0 / rc_lookahead=40 / rc=abr / mbtree=1 / bitrate=2500 / ratetol=1.0 / qcomp=0.60 / qpmin=0 / qpmax=69 / qpstep=4 / ip_ratio=1.40 / aq=1:1.00
Default : Yes
Forced : No
DURATION : 01:33:19.240000000
NUMBER_OF_FRAMES : 139981
NUMBER_OF_BYTES : 1729188183
_STATISTICS_WRITING_APP : mkvmerge v8.2.0 ('World of Adventure') 64bit
_STATISTICS_WRITING_DATE_UTC : 2015-11-12 21:36:55
_STATISTICS_TAGS : BPS DURATION NUMBER_OF_FRAMES NUMBER_OF_BYTES

Audio
ID : 2
Format : AC-3
Format/Info : Audio Coding 3
Mode extension : CM (complete main)
Format settings, Endianness : Big
Codec ID : A_AC3
Duration : 1h 33mn
Bit rate mode : Constant
Bit rate : 448 Kbps
Channel(s) : 6 channels
Channel positions : Front: L C R, Side: L R, LFE
Sampling rate : 48.0 KHz
Compression mode : Lossy
Stream size : 299 MiB (15%)
Default : Yes
Forced : No
DURATION : 01:33:18.080000000
NUMBER_OF_FRAMES : 174940
NUMBER_OF_BYTES : 313492480
_STATISTICS_WRITING_APP : mkvmerge v8.2.0 ('World of Adventure') 64bit
_STATISTICS_WRITING_DATE_UTC : 2015-11-12 21:36:55
_STATISTICS_TAGS : BPS DURATION NUMBER_OF_FRAMES NUMBER_OF_BYTES

Text
ID : 3
Format : UTF-8
Codec ID : S_TEXT/UTF8
Codec ID/Info : UTF-8 Plain Text
Language : Russian
Default : Yes
Forced : No



Скачать С.С.Д.(Вадим.Шмелев).[2008.ужасы.DVDRip-AVC].[Лицензия].torrent без регистрации
Золото ЗОЛОТАЯ РАЗДАЧА! СКАЧАННОЕ НЕ ЗАСЧИТЫВАЕТСЯ! Золото
Дата: Зарегистрирован   [ Тип: внутренний ] Как тут cкачать?
MAGNET ссылка
MAGNET ссылка


Скачать .torrent

20 KB

Статус: проверено DHT
Скачан: торрент - 58 раз, раздача полностью - 7 раз
Размер: 1,9 GB
Оценка:  - (Голосов: 0)
Поблагодарили: 1
Поделиться ссылкой на эту раздачу с друзьями:
В контактеFacebookОдноклассникиTwitterLivejournalМой МирLiveinternet
 

 
Показать сообщения:    


Вы не можете начинать темы
Вы не можете отвечать на сообщения
Вы не можете редактировать свои сообщения
Вы не можете удалять свои сообщения
Вы не можете голосовать в опросах
Вы не можете прикреплять файлы к сообщениям
Вы можете скачивать файлы