Loading...
Error

Скачать Остановись и гори / Halt and Catch Fire (сезон 01) (Хуан Хосе Кампанелла и др.) [2014, драма, WEB-DLRip] [MVO (НТВ+)] торрент без регистрации

 
Статистика раздачи
Размер:  5,19 GB   |    Скачан:  1290 раз
Сидов:  1  [  0 KB/s  ]  
 
Автор Сообщение

МихаНЕзатор

[] 

Информация о фильме
Название: Остановись и гори
Оригинальное название: Halt and Catch Fire
Год выхода: 2014
Жанр: драма
Режиссер: Хуан Хосе Кампанелла, Лариса Кондрацки, Карин Кусама

В ролях: Ли Пейс, Маккензи Дэвис, Скут МакНэри, Керри Бише, Тоби Хасс, Алана Кавано, Аугуст Эмерсон, Морган Хинкельман, Купер Эндрюс, Алекса Палладино

Описание: Сюжет разворачивается в 1980-х. Сериал рассказывает о компьютерном буме от лица мечтателя, инженера и вундеркинда, чьи инновации столкнулись с корпоративными гигантами того времени.



Страна: США
Продолжительность: 10x ~ 45 мин
Перевод: Профессиональный (многоголосый закадровый) НТВ+

Файл
Формат: AVI
Качество: WEB-DLRip
Видео: 720x400, (16:9), XviD, 1200 Кбит/сек, 23,976 кадра/сек
Аудио №1: MP3, 2 канала, 128 Кбит/сек, 48,0 КГц - НТВ+
Аудио №2: AC3, 192 Кбит/сек, 2 канала, 48,0 КГц - Оригинал (английский)

АНОНСЫ ПОПУЛЯРНЫХ РАЗДАЧ
Общее
Полное имя : J:Остановись и гори. Сезон 11x01 - Ввод-вывод (I-O).avi
Формат : AVI
Формат/Информация : Audio Video Interleave
Размер файла : 529 Мбайт
Продолжительность : 47 м.
Общий поток : 1550 Кбит/сек
Название фильма : Замри и гори (Остановись и гори). Сезон 1 / Halt and Catch Fire. Season 1 (2014)
Программа кодирования : VirtualDubMod 1.5.10.2 (build 2540/release)
Библиотека кодирования : VirtualDubMod build 2540/release

Видео
Идентификатор : 0
Формат : MPEG-4 Visual
Профиль формата : Advanced Simple@L5
Параметр BVOP формата : 1
Параметр QPel формата : Нет
Параметр GMC формата : Без точки перехода
Параметр матрицы формата : Выборочная
Идентификатор кодека : XVID
Идентификатор кодека/Подсказка : XviD
Продолжительность : 47 м.
Битрейт : 1216 Кбит/сек
Ширина : 720 пикселей
Высота : 400 пикселей
Соотношение сторон : 16:9
Частота кадров : 23,976 кадра/сек
Цветовое пространство : YUV
Субдискретизация насыщенности : 4:2:0
Битовая глубина : 8 бит
Тип развёртки : Прогрессивная
Метод сжатия : С потерями
Бит/(Пиксели*Кадры) : 0.176
Размер потока : 415 Мбайт (78%)
Библиотека кодирования : XviD 65

Аудио #1
Идентификатор : 1
Формат : MPEG Audio
Версия формата : Version 1
Профиль формата : Layer 3
Режим : Joint stereo
Расширение режима : MS Stereo
Идентификатор кодека : 55
Идентификатор кодека/Подсказка : MP3
Продолжительность : 47 м.
Вид битрейта : Постоянный
Битрейт : 128 Кбит/сек
Каналы : 2 канала
Частота : 48,0 КГц
Метод сжатия : С потерями
Размер потока : 43,7 Мбайт (8%)
Выравнивание : Соединение по промежуткам
Продолжительность промежутка : 42 мс. (1,00 видеокадр)
Время предзагрузки промежутка : 504 мс.
Заголовок : Профессиональный (многоголосый закадровый) AMC-MGM

Аудио #2
Идентификатор : 2
Формат : AC-3
Формат/Информация : Audio Coding 3
Расширение режима : CM (complete main)
Параметр Endianness формата : Big
Идентификатор кодека : 2000
Продолжительность : 47 м.
Вид битрейта : Постоянный
Битрейт : 192 Кбит/сек
Каналы : 2 канала
Расположение каналов : Front: L R
Частота : 48,0 КГц
Метод сжатия : С потерями
Размер потока : 65,5 Мбайт (12%)
Выравнивание : Разделение по промежуткам
Продолжительность промежутка : 42 мс. (1,00 видеокадр)
Время предзагрузки промежутка : 500 мс.
Заголовок : Английский



Скачать Остановись.и.гори.Halt.and.Catch.Fire.(сезон.01).(Хуан.Хосе.Кампанелла.и.др.).[2014.драма.WEB-DLRip].[MVO.(НТВ+)].torrent без регистрации
Золото ЗОЛОТАЯ РАЗДАЧА! СКАЧАННОЕ НЕ ЗАСЧИТЫВАЕТСЯ! Золото
Дата: Зарегистрирован   [ Тип: внутренний ] Как тут cкачать?
MAGNET ссылка
MAGNET ссылка


Скачать .torrent

27 KB

Статус: проверено DHT
Скачан: торрент - 1290 раз, раздача полностью - 2 раз
Размер: 5,19 GB
Оценка:  - (Голосов: 0)
Поблагодарили: 1
Поделиться ссылкой на эту раздачу с друзьями:
В контактеFacebookОдноклассникиTwitterLivejournalМой МирLiveinternet
 

 
Показать сообщения:    


Вы не можете начинать темы
Вы не можете отвечать на сообщения
Вы не можете редактировать свои сообщения
Вы не можете удалять свои сообщения
Вы не можете голосовать в опросах
Вы не можете прикреплять файлы к сообщениям
Вы можете скачивать файлы