Loading...
Error

Скачать Хроники Франкенштейна / The Frankenstein Chronicles (Сезон 01) (Бенжамин Росс) [2015, криминал, драма, триллер, детектив, HDTVRip] [MVO] (ViruseProject) торрент без регистрации

 
Статистика раздачи
Размер:  4,03 GB   |    Скачан:  119 раз
Сидов:  1  [  0 KB/s  ]  
 
Автор Сообщение

leon030982

[] 

Хроники Франкенштейна / The Frankenstein Chronicles


Год выпуска: 2015
Страна: Великобритания
Жанр: криминал, драма, триллер, детектив
Продолжительность: 1x ~00:48:00
Перевод: Профессиональный (многоголосый закадровый) [ViruseProject]
Русские субтитры: нет

Режиссёр: Бенжамин Росс

В ролях: Шон Бин, Мэгги Кронин, Шон Блэйни, Брирс Энтони, Бобби Марно, Энтони Моррис и др.


Жуткое и волнующее преображение классического мифа о чудовище Франкенштейна начинается в Лондоне девятнадцатого века с найденного в реке трупа девочки, сшитого из нескольких частей разных тел.
Добро пожаловать в мрачный и захватывающий триллер о похитителях трупов, увлеченных реформаторах, серийных убийцах и старом добром притягательном ужасе!





смотреть ТРЕЙЛЕР сериала на русском на youtube
скачать СЕМПЛ с multi-up

Качество: HDTVRip
Формат: AVI
Видео кодек: XviD
Аудио кодек: MP3
Видео: 720x400 (1.80:1), 25 fps, XviD MPEG-4 ~1723 kbps avg, 0.24 bit/pixel
Аудио: 48 kHz, MPEG Layer 3, 2 ch, ~192.00 kbps avg

Добавлена 5-6-я серия!
General
Complete name : E:\ОЗВУЧКА\СЕРИАЛЫ №2\The.Frankenstein.Chronicles.S01.ViruseProject\The.Frankenstein.Chronicles.S01.ViruseProject\The.Frankenstein.Chronicles.S01E01.ViruseProject.avi
Format : AVI
Format/Info : Audio Video Interleave
File size : 655 MiB
Duration : 47mn 32s
Overall bit rate : 1 925 Kbps
Writing application : VirtualDubMod 1.5.10.2 (build 2540/release)
Writing library : VirtualDubMod build 2540/release
Video
ID : 0
Format : MPEG-4 Visual
Format profile : Advanced Simple@L5
Format settings, BVOP : 2
Format settings, QPel : No
Format settings, GMC : No warppoints
Format settings, Matrix : Default (H.263)
Codec ID : XVID
Codec ID/Hint : XviD
Duration : 47mn 32s
Bit rate : 1 724 Kbps
Width : 720 pixels
Height : 400 pixels
Display aspect ratio : 16:9
Frame rate : 25.000 fps
Color space : YUV
Chroma subsampling : 4:2:0
Bit depth : 8 bits
Scan type : Progressive
Compression mode : Lossy
Bits/(Pixel*Frame) : 0.239
Stream size : 586 MiB (90%)
Writing library : XviD 73
Audio
ID : 1
Format : MPEG Audio
Format version : Version 1
Format profile : Layer 3
Mode : Joint stereo
Mode extension : MS Stereo
Codec ID : 55
Codec ID/Hint : MP3
Duration : 47mn 32s
Bit rate mode : Constant
Bit rate : 192 Kbps
Channel(s) : 2 channels
Sampling rate : 48.0 KHz
Compression mode : Lossy
Stream size : 65.3 MiB (10%)
Alignment : Split accross interleaves
Interleave, duration : 40 ms (1.00 video frame)
Interleave, preload duratio : 500 ms
Внимание! Раздача ведётся путём добавления новых серий; при каждом добавлении создётся новый торрент. Чтобы начать докачку новой серии, пользователям необходимо сделать следующее:
Остановить скачивание.
Удалить старый торрент у себя из клиента (старые серии удалять не надо).
Скачать новый торрент и запустить его у себя в клиенте вместо старого, при этом указать клиенту путь в старую папку куда и должно происходить скачивание новых серий.
Ваш клиент при этом должен произвести хеширование (проверку) старой папки (если не производит сам - помогите ему сделать это), и будет докачивать только те серии которых у вас ещё нет. Старые серии при этом не удаляются, а продолжают раздаваться!
Eсли вы уже удалили старые серии, то предотвратить повторную закачку старых серий можно, отжав галочку в соответсвующих местах при запуске нового торрента. По возможности, желательно не удалять старые серии как можно дольше чтобы релизёр не столько продолжал раздавать старые серии, а смог сконцентрироваться на новых.



Скачать Хроники.Франкенштейна.The.Frankenstein.Chronicles.(Сезон.01).(Бенжамин.Росс).[2015.криминал.драма.триллер.детектив.HDTVRip].[MVO].(ViruseProject).torrent без регистрации
Золото ЗОЛОТАЯ РАЗДАЧА! СКАЧАННОЕ НЕ ЗАСЧИТЫВАЕТСЯ! Золото
Дата: Зарегистрирован   [ Тип: внутренний ] Как тут cкачать?
MAGNET ссылка
MAGNET ссылка


Скачать .torrent

11 KB

Статус: проверено DHT
Скачан: торрент - 119 раз, раздача полностью - 5 раз
Размер: 4,03 GB
Оценка:  5 (Голосов: 1)
Поблагодарили: 2
Поделиться ссылкой на эту раздачу с друзьями:
В контактеFacebookОдноклассникиTwitterLivejournalМой МирLiveinternet
 

 

leon030982

[] 

Код:

Добавлена 3-4-я серия
 
Показать сообщения:    


Вы не можете начинать темы
Вы не можете отвечать на сообщения
Вы не можете редактировать свои сообщения
Вы не можете удалять свои сообщения
Вы не можете голосовать в опросах
Вы не можете прикреплять файлы к сообщениям
Вы можете скачивать файлы