Loading...
Error

Скачать Предатель / Traitor (Джеффри Начманофф) [2008, драма, триллер, BDRip-AVC] [DVO]+[Sub]x2 торрент без регистрации

 
Статистика раздачи
Размер:  2,71 GB   |    Скачан:  55 раз
Сидов:  1  [  0 KB/s  ]  
 
Автор Сообщение

Marsianka

[] 

Информация о фильме
Название: Предатель
Оригинальное название: Traitor
Год выхода: 2008
Жанр: драма, триллер
Режиссер: Джеффри Начманофф
В ролях: Дон Чидл, Гай Пирс, Саид Тагмауи, Нил МакДонаф, Али Кхан, Арчи Пенджаби, Раад Рави, Хассам Ганси, Можан Марно, Адель Ахтар

О фильме: Агент ФБР Рой Клэйтон ведет расследование опасного международного заговора и обнаруживает, что все нити ведут к офицеру США отдела Специальных Операций Самиру Хорну. Мистическая фигура со связями в террористических организациях, Хорн умеет появляться как раз во время окончания основной операции. Разгадки ведут к побегу из тюрьмы в Йемене, взрыву бомбы в Ницце и налете в Лондоне — все это путает Роя Клэйтона, задающегося вопросом — кто же Хорн…



Страна: США
Продолжительность: 01:54:00
Перевод: Профессиональный двухголосый
Субтитры: Русские, английские

Файл
Кодек: Н264
Качество: BDRip (AVC) (Blu-Ray Remux (1080p))
Видео: MPEG-4 AVC, 2499 Кбит/с, 1024х426
Звук: Русский, английский (AC3, 6 ch, 448 Кбит/с)

Семпл
Общее
Уникальный идентификатор : 231939131321167799132952310399825213789 (0xAE7DDA11716CB507A22E89D72D6DF95D)
Полное имя : D:1Predatel.2008.x264.BDRip.(AVC).ExKinoRay.mkv
Формат : Matroska
Размер файла : 2,71 Гбайт
Продолжительность : 1 ч. 54 м.
Общий поток : 3393 Кбит/сек
Название фильма : Predatel.2008.x264.BDRip.(AVC).ExKinoRay
Дата кодирования : UTC 2013-03-16 13:37:50
Программа кодирования : mkvmerge v4.0.0 ('The Stars were mine') сборка от Jun 6 2010 16:18:42
Библиотека кодирования : libebml v1.0.0 + libmatroska v1.0.0

Видео
Идентификатор : 1
Формат : AVC
Формат/Информация : Advanced Video Codec
Профиль формата : High@L4.1
Параметр CABAC формата : Да
Параметр ReFrames формата : 8 кадров
Идентификатор кодека : V_MPEG4/ISO/AVC
Продолжительность : 1 ч. 54 м.
Битрейт : 2499 Кбит/сек
Ширина : 1024 пикс.
Высота : 426 пикс.
Соотношение сторон : 2,40:1
Частота кадров : 23,976 кадр/сек
Цветовое пространство : YUV
Подвыборка цветности : 4:2:0
Битовая глубина : 8 бит
Тип развёртки : Прогрессивная
Бит/(Пиксели*Кадры) : 0.239
Размер потока : 1,94 Гбайт (72%)
Заголовок : Rip by Enigma-Vladislav71
Библиотека кодирования : x264 core 129 r2245 bc13772
Настройки программы : cabac=1 / ref=8 / deblock=1:-2:-2 / analyse=0x3:0x133 / me=umh / subme=11 / psy=1 / psy_rd=1.00:0.00 / mixed_ref=1 / me_range=48 / chroma_me=1 / trellis=2 / 8x8dct=1 / cqm=0 / deadzone=21,11 / fast_pskip=0 / chroma_qp_offset=-2 / threads=3 / lookahead_threads=1 / sliced_threads=0 / nr=0 / decimate=0 / interlaced=0 / bluray_compat=0 / constrained_intra=0 / bframes=8 / b_pyramid=2 / b_adapt=2 / b_bias=0 / direct=3 / weightb=1 / open_gop=0 / weightp=2 / keyint=240 / keyint_min=23 / scenecut=40 / intra_refresh=0 / rc_lookahead=40 / rc=2pass / mbtree=1 / bitrate=2499 / ratetol=1.0 / qcomp=0.60 / qpmin=10 / qpmax=51 / qpstep=4 / cplxblur=20.0 / qblur=0.5 / ip_ratio=1.40 / aq=2:1.00
Язык : English

Аудио #1
Идентификатор : 2
Формат : AC-3
Формат/Информация : Audio Coding 3
Расширение режима : CM (complete main)
Идентификатор кодека : A_AC3
Продолжительность : 1 ч. 54 м.
Вид битрейта : Постоянный
Битрейт : 448 Кбит/сек
Каналы : 6 каналов
Расположение каналов : Front: L C R, Side: L R, LFE
Частота : 48,0 КГц
Битовая глубина : 16 бит
Метод сжатия : С потерями
Размер потока : 366 Мбайт (13%)
Язык : Russian

Аудио #2
Идентификатор : 3
Формат : AC-3
Формат/Информация : Audio Coding 3
Расширение режима : CM (complete main)
Идентификатор кодека : A_AC3
Продолжительность : 1 ч. 54 м.
Вид битрейта : Постоянный
Битрейт : 448 Кбит/сек
Каналы : 6 каналов
Расположение каналов : Front: L C R, Side: L R, LFE
Частота : 48,0 КГц
Битовая глубина : 16 бит
Метод сжатия : С потерями
Размер потока : 366 Мбайт (13%)
Язык : English

Текст #1
Идентификатор : 4
Формат : UTF-8
Идентификатор кодека : S_TEXT/UTF8
Идентификатор кодека/Информация : UTF-8 Plain Text
Язык : Russian

Текст #2
Идентификатор : 5
Формат : UTF-8
Идентификатор кодека : S_TEXT/UTF8
Идентификатор кодека/Информация : UTF-8 Plain Text
Язык : English

Меню
00:00:00.000 : en:Chapter 01
00:02:12.382 : en:Chapter 02
00:08:21.375 : en:Chapter 03
00:11:04.622 : en:Chapter 04
00:15:58.165 : en:Chapter 05
00:20:21.553 : en:Chapter 06
00:26:02.435 : en:Chapter 07
00:28:20.115 : en:Chapter 08
00:33:09.237 : en:Chapter 09
00:38:39.191 : en:Chapter 10
00:43:42.036 : en:Chapter 11
00:48:49.926 : en:Chapter 12
00:56:24.255 : en:Chapter 13
01:04:28.322 : en:Chapter 14
01:12:18.584 : en:Chapter 15
01:20:03.632 : en:Chapter 16
01:25:38.091 : en:Chapter 17
01:33:28.477 : en:Chapter 18
01:40:08.168 : en:Chapter 19
01:47:54.634 : en:Chapter 20
01:54:07.590 : en:Chapter 21
Релиз от:

Авторы релиза:



Скачать Предатель.Traitor.(Джеффри.Начманофф).[2008.драма.триллер.BDRip-AVC].[DVO]+[Sub]x2.torrent без регистрации
Золото ЗОЛОТАЯ РАЗДАЧА! СКАЧАННОЕ НЕ ЗАСЧИТЫВАЕТСЯ! Золото
Дата: Зарегистрирован   [ Тип: внутренний ] Как тут cкачать?
MAGNET ссылка
MAGNET ссылка


Скачать .torrent

14 KB

Статус: проверено DHT
Скачан: торрент - 55 раз, раздача полностью - 11 раз
Размер: 2,71 GB
Оценка:  - (Голосов: 0)
Поблагодарили: 2
Поделиться ссылкой на эту раздачу с друзьями:
В контактеFacebookОдноклассникиTwitterLivejournalМой МирLiveinternet
 

 
Показать сообщения:    


Вы не можете начинать темы
Вы не можете отвечать на сообщения
Вы не можете редактировать свои сообщения
Вы не можете удалять свои сообщения
Вы не можете голосовать в опросах
Вы не можете прикреплять файлы к сообщениям
Вы можете скачивать файлы