Loading...
Error

Скачать Внутренний мир Дейзи Кловер / Inside Daisy Clover (Роберт Маллиган) [1965, драма, DVDRip-AVC] [MVO]+[Sub] торрент без регистрации

 
Статистика раздачи
Размер:  1,92 GB   |    Скачан:  42 раза
Сидов:  1  [  0 KB/s  ]  
 
Автор Сообщение

Marsianka

[] 

Информация о фильме
Название: Внутренний мир Дейзи Кловер
Оригинальное название: Inside Daisy Clover
Год выхода: 1965
Жанр: драма
Режиссер: Роберт Маллиган / Robert Mulligan
В ролях: Натали Вуд, Кристофер Пламмер, Роберт Редфорд, Гарольд Гулд и др.

О фильме:
Молодая девушка Дэйзи Кловер, мечтающая попасть в Голливуд, записала пластинку с песней и отправила на студию. Запись привлекла внимание продюсера Реймонда Свона и Дэйзи стала звездой. Жизнь голливудской дивы нелегка, и Дэйзи пришлось пожертвовать не только собой, чтобы удержаться «на плаву».


Страна: США
Студия: Park Place Production, Warner Bros.
Продолжительность: 02:08:30.055
Перевод: Профессиональный (многоголосый, закадровый)

Файл
Кодек: h.264
Качество: DVDRip-AVC
Видео: 720x360 (2.35:1) @ 853x360, 23.976 fps, AVC, ~1780 Kbps, 0.286 bits/pixel

Русский, 48.0 KHz, AC3, 1 ch, 160 Kbps
Английский, 48.0 KHz, AC3, 1 ch, 192 Kbps
Субтитры: Англйиские, VobSub
General
Unique ID : 181286698383865585336791056828600181191 (0x88628C4FDDB1E83781C6712E99BC61C7)
Complete name : I:FilmsVnutrenniy_Mir_Deizi_Klover.1965.DVDRip-AVC.mkv
Format : Matroska
Format version : Version 4 / Version 2
File size : 1.92 GiB
Duration : 2h 8mn
Overall bit rate : 2 135 Kbps
Encoded date : UTC 2015-11-15 08:34:26
Writing application : mkvmerge v8.5.2 ('Crosses') 64bit
Writing library : libebml v1.3.3 + libmatroska v1.4.4
DURATION : 02:08:04.565000000
NUMBER_OF_FRAMES : 1001
NUMBER_OF_BYTES : 1219863
_STATISTICS_WRITING_APP : mkvmerge v8.5.2 ('Crosses') 64bit
_STATISTICS_WRITING_DATE_UTC : 2015-11-15 08:34:26
_STATISTICS_TAGS : BPS DURATION NUMBER_OF_FRAMES NUMBER_OF_BYTES

Video
ID : 1
Format : AVC
Format/Info : Advanced Video Codec
Format profile : High@L4.1
Format settings, CABAC : Yes
Format settings, ReFrames : 11 frames
Codec ID : V_MPEG4/ISO/AVC
Duration : 2h 8mn
Bit rate : 1 780 Kbps
Width : 720 pixels
Height : 360 pixels
Display aspect ratio : 2.35:1
Original display aspect ratio : 2.40:1
Frame rate mode : Constant
Frame rate : 23.976 fps
Color space : YUV
Chroma subsampling : 4:2:0
Bit depth : 8 bits
Scan type : Progressive
Bits/(Pixel*Frame) : 0.286
Stream size : 1.56 GiB (82%)
Writing library : x264 core 146 r2538 121396c
Encoding settings : cabac=1 / ref=11 / deblock=1:0:0 / analyse=0x3:0x133 / me=umh / subme=11 / psy=1 / psy_rd=1.10:0.15 / mixed_ref=1 / me_range=48 / chroma_me=1 / trellis=2 / 8x8dct=1 / cqm=0 / deadzone=21,11 / fast_pskip=0 / chroma_qp_offset=-3 / threads=8 / lookahead_threads=2 / sliced_threads=0 / nr=0 / decimate=0 / interlaced=0 / bluray_compat=0 / constrained_intra=0 / bframes=10 / b_pyramid=2 / b_adapt=2 / b_bias=0 / direct=3 / weightb=1 / open_gop=0 / weightp=2 / keyint=240 / keyint_min=23 / scenecut=40 / intra_refresh=0 / rc_lookahead=60 / rc=2pass / mbtree=0 / bitrate=1780 / ratetol=1.0 / qcomp=0.60 / qpmin=0 / qpmax=69 / qpstep=4 / cplxblur=20.0 / qblur=0.5 / vbv_maxrate=40000 / vbv_bufsize=50000 / nal_hrd=none / filler=0 / ip_ratio=1.40 / pb_ratio=1.30 / aq=1:1.00
Default : No
Forced : No
Color range : Limited
Matrix coefficients : BT.601

Audio #1
ID : 2
Format : AC-3
Format/Info : Audio Coding 3
Mode extension : CM (complete main)
Format settings, Endianness : Big
Codec ID : A_AC3
Duration : 2h 8mn
Bit rate mode : Constant
Bit rate : 160 Kbps
Channel(s) : 1 channel
Channel positions : Front: C
Sampling rate : 48.0 KHz
Compression mode : Lossy
Delay relative to video : 7ms
Stream size : 147 MiB (7%)
Language : Russian
Default : Yes
Forced : No

Audio #2
ID : 3
Format : AC-3
Format/Info : Audio Coding 3
Mode extension : CM (complete main)
Format settings, Endianness : Big
Codec ID : A_AC3
Duration : 2h 8mn
Bit rate mode : Constant
Bit rate : 192 Kbps
Channel(s) : 1 channel
Channel positions : Front: C
Sampling rate : 48.0 KHz
Compression mode : Lossy
Delay relative to video : 7ms
Stream size : 176 MiB (9%)
Language : English
Default : No
Forced : No

Text
ID : 4
Format : VobSub
Muxing mode : zlib
Codec ID : S_VOBSUB
Codec ID/Info : Picture based subtitle format used on DVDs
Language : English
Default : No
Forced : No

Menu
00:00:00.000 : en:Chapter 01
00:03:36.667 : en:Chapter 02
00:06:25.834 : en:Chapter 03
00:11:49.468 : en:Chapter 04
00:15:43.635 : en:Chapter 05
00:19:22.135 : en:Chapter 06
00:22:30.969 : en:Chapter 07
00:27:07.136 : en:Chapter 08
00:33:15.336 : en:Chapter 09
00:36:19.636 : en:Chapter 10
00:42:40.136 : en:Chapter 11
00:50:00.136 : en:Chapter 12
00:53:00.136 : en:Chapter 13
00:55:58.470 : en:Chapter 14
01:01:07.470 : en:Chapter 15
01:05:26.804 : en:Chapter 16
01:09:33.304 : en:Chapter 17
01:13:23.305 : en:Chapter 18
01:17:30.972 : en:Chapter 19
01:22:45.806 : en:Chapter 20
01:27:30.140 : en:Chapter 21
01:30:05.140 : en:Chapter 22
01:34:39.140 : en:Chapter 23
01:36:19.974 : en:Chapter 24
01:41:00.974 : en:Chapter 25
01:44:13.508 : en:Chapter 26
01:48:36.476 : en:Chapter 27
01:53:29.310 : en:Chapter 28
01:59:19.144 : en:Chapter 29
02:05:47.311 : en:Chapter 30
02:07:56.145 : en:Chapter 31
Исходник R1 Релиз от: Temperest



Скачать Внутренний.мир.Дейзи.Кловер.Inside.Daisy.Clover.(Роберт.Маллиган).[1965.драма.DVDRip-AVC].[MVO]+[Sub].torrent без регистрации
Золото ЗОЛОТАЯ РАЗДАЧА! СКАЧАННОЕ НЕ ЗАСЧИТЫВАЕТСЯ! Золото
Дата: Зарегистрирован   [ Тип: внутренний ] Как тут cкачать?
MAGNET ссылка
MAGNET ссылка


Скачать .torrent

20 KB

Статус: проверено DHT
Скачан: торрент - 42 раз, раздача полностью - 0 раз
Размер: 1,92 GB
Оценка:  - (Голосов: 0)
Поблагодарили: 1
Поделиться ссылкой на эту раздачу с друзьями:
В контактеFacebookОдноклассникиTwitterLivejournalМой МирLiveinternet
 

 
Показать сообщения:    


Вы не можете начинать темы
Вы не можете отвечать на сообщения
Вы не можете редактировать свои сообщения
Вы не можете удалять свои сообщения
Вы не можете голосовать в опросах
Вы не можете прикреплять файлы к сообщениям
Вы можете скачивать файлы