Loading...
Error

Скачать Достопочтенный джентльмен / The Distinguished Gentleman (Джонатан Линн / Jonathan Lynn) [1992, комедия, криминал, HDTVRip-AVC] [MVO] (СТС) + [AVO] (А.Михалёв) торрент без регистрации

 
Статистика раздачи
Размер:  2,15 GB   |    Скачан:  62 раза
Сидов:  1  [  0 KB/s  ]  
 
Автор Сообщение

leon030982

[] 

Достопочтенный джентльмен
The Distinguished Gentleman
Год выпуска: 1992
Страна: США
Жанр: комедия
Продолжительность: 01:52:20
Перевод: Профессиональный (многоголосый закадровый) |СТС|
Перевод: Авторский (одноголосый закадровый) |Михалёв|
Cубтитры: нет
Оригинальная аудиодорожка: нет
Режиссер: Джонатан Линн / Jonathan Lynn
В ролях:
Эдди Мёрфи, Лейн Смит, Шерил Ли Ральф, Джо Дон Бейкер, Виктория Роуэлл, Грант Шод, Кевин МакКарти, Чарльз С. Даттон, Виктор Риверс, Чи МакБрайд

Описание: Хитрый мошенник из Флориды хоть и не бедствует, но все же понимает, что больших денег в этой глуши ему не заработать. Его призывно манят столичные толстосумы, с которыми он мог бы дать волю своему таланту. А где их больше всего? Конечно же в Белом Доме!
И ловкий плут отправляется на покорение вершин большой политики, ведь именно там его таланты, как ни странно, оказываются наиболее уместными.



Качество видео: HDTVRip-AVC
Формат: MKV
Видео: AVC, 896x488 (1,85:1), 2381 kbps, 23,976, quality: 0.227
Аудио #1: AC-3, 2ch, 192 kbps, 48 KHz |MVO (СТС)|
Аудио #2: AC-3, 2ch, 192 kbps, 48 KHz |Михалев|
x264 [info]: frame I:1413 Avg QP:15.55 size: 67302
x264 [info]: frame P:33519 Avg QP:18.81 size: 27239
x264 [info]: frame B:126686 Avg QP:21.04 size: 7878
x264 [info]: consecutive B-frames: 1.5% 2.4% 6.3% 23.4% 15.7% 33.4% 6.3% 8.2% 1.8% 0.5% 0.4%
x264 [info]: mb I I16..4: 4.9% 71.4% 23.7%
x264 [info]: mb P I16..4: 0.4% 12.8% 1.5% P16..4: 28.1% 35.0% 14.4% 2.9% 0.4% skip: 4.5%
x264 [info]: mb B I16..4: 0.0% 1.4% 0.1% B16..8: 37.3% 21.8% 3.3% direct: 6.6% skip:29.5% L0:40.0% L1:44.0% BI:15.9%
x264 [info]: 8x8 transform intra:85.4% inter:60.1%
x264 [info]: direct mvs spatial:99.2% temporal:0.8%
x264 [info]: coded y,uvDC,uvAC intra: 95.3% 84.8% 59.0% inter: 32.8% 24.8% 8.2%
x264 [info]: i16 v,h,dc,p: 33% 11% 6% 50%
x264 [info]: i8 v,h,dc,ddl,ddr,vr,hd,vl,hu: 15% 8% 7% 9% 12% 13% 12% 12% 12%
x264 [info]: i4 v,h,dc,ddl,ddr,vr,hd,vl,hu: 18% 9% 5% 8% 13% 14% 12% 11% 11%
x264 [info]: i8c dc,h,v,p: 34% 27% 22% 17%
x264 [info]: Weighted P-Frames: Y:4.6% UV:1.4%
x264 [info]: ref P L0: 40.3% 12.4% 19.1% 6.3% 6.1% 4.0% 4.1% 2.1% 2.1% 1.6% 1.8% 0.2% 0.0%
x264 [info]: ref B L0: 76.5% 10.7% 4.6% 2.4% 1.7% 1.5% 1.2% 0.8% 0.4% 0.2%
x264 [info]: ref B L1: 94.0% 6.0%
x264 [info]: kb/s:2380.88
x264 [total]: encoded 161618 frames, 1.78 fps, 2380.88 kb/s
Полное имя : H:\The.Distinguished.H264._HDTVRip_cw.mkv
Формат : Matroska
Версия формата : Version 2
Размер файла : 2,15 Гбайт
Продолжительность : 1 ч. 52 м.
Общий поток : 2734 Кбит/сек
Название фильма : Достопочтенный джентльмен / The Distinguished Gentleman
Дата кодирования : UTC 2013-04-08 09:31:49
Программа кодирования : mkvmerge v5.5.0 ('Healer') built on Apr 24 2012 23:47:03
Библиотека кодирования : libebml v1.2.3 + libmatroska v1.3.0
Видео
Идентификатор : 1
Формат : AVC
Формат/Информация : Advanced Video Codec
Профиль формата : High@L4.1
Параметр CABAC формата : Да
Параметр ReFrames формата : 11 кадров
Идентификатор кодека : V_MPEG4/ISO/AVC
Продолжительность : 1 ч. 52 м.
Битрейт : 2381 Кбит/сек
Ширина : 896 пикселей
Высота : 488 пикселей
Соотношение сторон : 1,85:1
Частота кадров : 23,976 кадра/сек
Цветовое пространство : YUV
Субдискретизация насыщенности : 4:2:0
Битовая глубина : 8 бит
Тип развёртки : Прогрессивная
Бит/(Пиксели*Кадры) : 0.227
Размер потока : 1,83 Гбайт (85%)
Заголовок : The Distinguished Gentleman
Библиотека кодирования : x264 core 130 r2273 b3065e6
Настройки программы : cabac=1 / ref=11 / deblock=1:-3:-3 / analyse=0x3:0x133 / me=umh / subme=11 / psy=1 / psy_rd=1.00:0.15 / mixed_ref=1 / me_range=48 / chroma_me=1 / trellis=2 / 8x8dct=1 / cqm=0 / deadzone=21,11 / fast_pskip=1 / chroma_qp_offset=-3 / threads=4 / lookahead_threads=1 / sliced_threads=0 / nr=0 / decimate=0 / interlaced=0 / bluray_compat=0 / constrained_intra=0 / bframes=10 / b_pyramid=2 / b_adapt=2 / b_bias=0 / direct=3 / weightb=1 / open_gop=0 / weightp=2 / keyint=250 / keyint_min=23 / scenecut=40 / intra_refresh=0 / rc_lookahead=50 / rc=2pass / mbtree=1 / bitrate=2381 / ratetol=1.0 / qcomp=0.60 / qpmin=0 / qpmax=69 / qpstep=4 / cplxblur=20.0 / qblur=0.5 / ip_ratio=1.40 / aq=1:1.00
Язык : English
Default : Да
Forced : Нет
Аудио #1
Идентификатор : 2
Формат : AC-3
Формат/Информация : Audio Coding 3
Расширение режима : CM (complete main)
Параметр Endianness формата : Big
Идентификатор кодека : A_AC3
Продолжительность : 1 ч. 52 м.
Вид битрейта : Постоянный
Битрейт : 160 Кбит/сек
Каналы : 2 канала
Расположение каналов : Front: L R
Частота : 48,0 КГц
Битовая глубина : 16 бит
Метод сжатия : С потерями
Размер потока : 129 Мбайт (6%)
Заголовок : MVO_СТС
Язык : Russian
Default : Да
Forced : Нет
Аудио #2
Идентификатор : 3
Формат : AC-3
Формат/Информация : Audio Coding 3
Расширение режима : CM (complete main)
Параметр Endianness формата : Big
Идентификатор кодека : A_AC3
Продолжительность : 1 ч. 52 м.
Вид битрейта : Постоянный
Битрейт : 192 Кбит/сек
Каналы : 2 канала
Расположение каналов : Front: L R
Частота : 48,0 КГц
Битовая глубина : 16 бит
Метод сжатия : С потерями
Размер потока : 154 Мбайт (7%)
Заголовок : VO_Михалев
Язык : Russian
Default : Нет
Forced : Нет



Скачать Достопочтенный.джентльмен.The.Distinguished.Gentleman.(Джонатан.Линн.Jonathan.Lynn).[1992.комедия.криминал.HDTVRip-AVC].[MVO].(СТС).+.[AVO].(А.Михалёв).torrent без регистрации
Золото ЗОЛОТАЯ РАЗДАЧА! СКАЧАННОЕ НЕ ЗАСЧИТЫВАЕТСЯ! Золото
Дата: Зарегистрирован   [ Тип: внутренний ] Как тут cкачать?
MAGNET ссылка
MAGNET ссылка


Скачать .torrent

11 KB

Статус: проверено DHT
Скачан: торрент - 62 раз, раздача полностью - 13 раз
Размер: 2,15 GB
Оценка:  5 (Голосов: 1)
Поблагодарили: 1
Поделиться ссылкой на эту раздачу с друзьями:
В контактеFacebookОдноклассникиTwitterLivejournalМой МирLiveinternet
 

 
Показать сообщения:    


Вы не можете начинать темы
Вы не можете отвечать на сообщения
Вы не можете редактировать свои сообщения
Вы не можете удалять свои сообщения
Вы не можете голосовать в опросах
Вы не можете прикреплять файлы к сообщениям
Вы можете скачивать файлы