Loading...
Error

Скачать Последнее королевство / The Last Kingdom (Сезон 1, Серия 1-8 из 8) (Бен Чанан, Энтони Бирн) [2015 , Исторический, боевик, мелодрама , EB-DLRip 1080p] [MVO] [AlexFilm , NewStudio , BaibaKo , English] торрент без регистрации

 
Статистика раздачи
Размер:  22,21 GB   |    Скачан:  89 раз
Сидов:  1  [  0 KB/s  ]  
 
Автор Сообщение

Nikolai.Baranov

[] 



Последнее королевство / The Last Kingdom Сезон 1, Серия 1-8 из 8




Год выпуска: 2015
Выпущено: Великобритания, Carnival Film & Television
Жанр: Исторический, боевик, мелодрама
Продолжительность: 00:55:00
Сезон: 1
Серии: 1-8
Количество серий в сезоне: 8

Озвучка 1 :Многоголосое профессиональное закадровое озвучание - AlexFilm

Озвучка 2 :Многоголосое профессиональное закадровое озвучание - NewStudio

Озвучка 3:Многоголосое профессиональное закадровое озвучание - BaibaKo

Озвучка 4:Многоголосое профессиональное - English-оригинал



Режиссер: Бен Чанан, Энтони Бирн

В ролях:Александр Дреймон, Николас Роу, Эмили Кокс, Дэвид Доусон, Иэн Харт, Герард Кернс, Алек Ньюман.

Сюжет рассказывает о временах правления короля Уэссекса Альфреда Великого, сумевшего отвоевать английские земли у датских викингов — заморских захватчиков. Главным героем повествования выступает ещё в младенчестве похищенный данами Утред — потомок благородного саксонского рода. Воспитанный как викинг, в очень непростой момент жизненного выбора молодой воин должен будет решить для себя, чью сторону он примет в решающих сражениях за судьбу древней Британии.





Качество :WEB-DLRip-AVC 1080p
Формат: MKV
Видео кодек: H264
Видео: 5096Кбит/сек,1920х1080(16.9),в 25.000кадр/сек,AVC(High@L4)(CABAC/4 Ref Frames)
Аудио Кодек:AC3
Аудио #1:AC3 , 384 Kbps, 48.0 KHz, 6 ch- - AlexFilm
Аудио #2:AC3 , 384 Kbps, 48.0 KHz, 6 ch- - NewStudio
Аудио #3: AC3, 384 Kbps, 48.0 KHz, 6 ch - - BaibaKo
Аудио #4: AC3,384 Kbps, 48.0 KHz,6 ch - - English


Звуковая дорожка сделана путем наложения чистого голоса озвучивателей на центральный канал оригинальной дорожки. Качество идентично звуковой дорожке.



Общее
Уникальный идентификатор : 192629916351683660527392673993979161634 (0x90EB2C22F9302C1B98CB041FF2056C22)
Полное имя : D:\ИСТОРИЧЕСКИЕ\Последнее королевство\The_Last_Kingdom_2015_S01_3xRUS_ENG[AlexFilm_NewStudio_ BaibaKo]_N.B_WEB-DLRip_1080\The_Last_Kingdom_2015_S01E01_3xRUS_ENG[AlexFilm_NewStudio_ BaibaKo]_N.B_WEB-DLRip_1080.mkv
Формат : Matroska
Версия формата : Version 4 / Version 2
Размер файла : 2,80 Гбайт
Продолжительность : 59 м.
Общий поток : 6767 Кбит/сек
Название фильма : The_Last_Kingdom_2015_S01E01_3xRUS_ENG[AlexFilm_NewStudio_ BaibaKo]_N.B_WEB-DLRip_1080
Дата кодирования : UTC 2015-11-12 20:10:00
Программа кодирования : mkvmerge v8.5.2 ('Crosses') 64bit
Библиотека кодирования : libebml v1.3.3 + libmatroska v1.4.4
DURATION : 00:59:09.920000000
NUMBER_OF_FRAMES : 110935
NUMBER_OF_BYTES : 170396160
_STATISTICS_WRITING_APP : mkvmerge v8.5.2 ('Crosses') 64bit
_STATISTICS_WRITING_DATE_UTC : 2015-11-12 20:10:00
_STATISTICS_TAGS : BPS DURATION NUMBER_OF_FRAMES NUMBER_OF_BYTES

Видео
Идентификатор : 1
Формат : AVC
Формат/Информация : Advanced Video Codec
Профиль формата : High@L4
Параметр CABAC формата : Да
Параметр ReFrames формата : 4 кадра
Идентификатор кодека : V_MPEG4/ISO/AVC
Продолжительность : 59 м.
Битрейт : 5096 Кбит/сек
Ширина : 1920 пикселей
Высота : 1080 пикселей
Соотношение сторон : 16:9
Режим частоты кадров : Постоянный
Частота кадров : 25,000 кадров/сек
Цветовое пространство : YUV
Субдискретизация насыщенности : 4:2:0
Битовая глубина : 8 бит
Тип развёртки : Прогрессивная
Бит/(Пиксели*Кадры) : 0.098
Размер потока : 2,11 Гбайт (75%)
Язык : English
Default : Да
Forced : Нет
Цветовой диапазон : Limited
Основные цвета : BT.709
Характеристики трансфера : BT.709
Коэффициенты матрицы : BT.709

Аудио #1
Идентификатор : 3
Формат : AC-3
Формат/Информация : Audio Coding 3
Расширение режима : CM (complete main)
Параметр Endianness формата : Big
Идентификатор кодека : A_AC3
Продолжительность : 59 м.
Вид битрейта : Постоянный
Битрейт : 384 Кбит/сек
Каналы : 6 каналов
Расположение каналов : Front: L C R, Side: L R, LFE
Частота : 48,0 КГц
Метод сжатия : С потерями
Размер потока : 163 Мбайт (6%)
Заголовок : DD5.1 AlexFilm
Язык : Russian
Default : Да
Forced : Нет

Аудио #2
Идентификатор : 4
Формат : AC-3
Формат/Информация : Audio Coding 3
Расширение режима : CM (complete main)
Параметр Endianness формата : Big
Идентификатор кодека : A_AC3
Продолжительность : 59 м.
Вид битрейта : Постоянный
Битрейт : 384 Кбит/сек
Каналы : 6 каналов
Расположение каналов : Front: L C R, Side: L R, LFE
Частота : 48,0 КГц
Метод сжатия : С потерями
Размер потока : 163 Мбайт (6%)
Заголовок : NewStudio.TV
Язык : Russian
Default : Нет
Forced : Нет

Аудио #3
Идентификатор : 5
Формат : AC-3
Формат/Информация : Audio Coding 3
Расширение режима : CM (complete main)
Параметр Endianness формата : Big
Идентификатор кодека : A_AC3
Продолжительность : 59 м.
Вид битрейта : Постоянный
Битрейт : 384 Кбит/сек
Каналы : 6 каналов
Расположение каналов : Front: L C R, Side: L R, LFE
Частота : 48,0 КГц
Метод сжатия : С потерями
Размер потока : 163 Мбайт (6%)
Default : Нет
Forced : Нет

Аудио #4
Идентификатор : 6
Формат : AC-3
Формат/Информация : Audio Coding 3
Расширение режима : CM (complete main)
Параметр Endianness формата : Big
Идентификатор кодека : A_AC3
Продолжительность : 59 м.
Вид битрейта : Постоянный
Битрейт : 384 Кбит/сек
Каналы : 6 каналов
Расположение каналов : Front: L C R, Side: L R, LFE
Частота : 48,0 КГц
Метод сжатия : С потерями
Размер потока : 163 Мбайт (6%)
Заголовок : DD5.1 Original
Язык : English
Default : Нет
Forced : Нет

Текст
Идентификатор : 2
Формат : ASS
Идентификатор кодека : S_TEXT/ASS
Идентификатор кодека/Информация : Advanced Sub Station Alpha
Метод сжатия : Без потерь
Язык : Russian
Default : Да
Forced : Нет







1. Открыть торрент
2. Снять галки с тех файлов торрента, которые мы не хотим закачивать. Оставляем только на нужных нам файлах (файле).
3. Нажать О.К.

В клиенте utorrent

Инструкция

1) Открыть торрент


2) Снять галки с тех файлов торрента, которые мы не хотим закачивать:

* либо вручную, снимая с каждого файла галку( скрин №1)
* либо, нажав кнопку "Снять метки (Select None)", сняв сразу со всех файлов(скрин №2)
№1

№2

Оставляем только на нужных нам файлах (файле).

3)Нажать О.К






Внимание!!! 06.12. 2015. РАЗДАЧА ОБНОВЛЕНА. ФИНАЛ СЕЗОНА .ОБНОВИТЕ ТОРЕНТ ФАЙЛ.ПРИЯТНОГО ПРОСМОТРА .

Релиз от: Nikolai.Baranov & PIRATIYA










Скачать Последнее.королевство.The.Last.Kingdom.(Сезон.1.Серия.1-8.из.8).(Бен.Чанан.Энтони.Бирн).[2015.Исторический.боевик.мелодрама.EB-DLRip.1080p].[MVO].[AlexFilm.NewStudio.BaibaKo.English].torrent без регистрации
Золото ЗОЛОТАЯ РАЗДАЧА! СКАЧАННОЕ НЕ ЗАСЧИТЫВАЕТСЯ! Золото
Дата: Зарегистрирован   [ Тип: внутренний ] Как тут cкачать?
MAGNET ссылка
MAGNET ссылка


Скачать .torrent

59 KB

Статус: проверено DHT
Скачан: торрент - 89 раз, раздача полностью - 2 раз
Размер: 22,21 GB
Оценка:  - (Голосов: 0)
Поблагодарили: 1
Поделиться ссылкой на эту раздачу с друзьями:
В контактеFacebookОдноклассникиTwitterLivejournalМой МирLiveinternet
 

 
Показать сообщения:    


Вы не можете начинать темы
Вы не можете отвечать на сообщения
Вы не можете редактировать свои сообщения
Вы не можете удалять свои сообщения
Вы не можете голосовать в опросах
Вы не можете прикреплять файлы к сообщениям
Вы можете скачивать файлы