Loading...
Error

Скачать Девочка из океана / Ocean Girl (сезон 01) (Марк Дефрист и др.) [1994, фантастика, фэнтези, боевик, приключения, семейный, DVDRip] [MVO]+[Eng] торрент без регистрации

 
Статистика раздачи
Размер:  4,74 GB   |    Скачан:  55 раз
Сидов:  1  [  0 KB/s  ]  
 
Автор Сообщение

МихаНЕзатор

[] 

Информация о фильме
Название: Девочка из океана
Оригинальное название: Ocean Girl
Год выхода: 1994
Жанр: фантастика, фэнтези, боевик, приключения, семейный
Режиссер: Марк Дефрист, Колин Баддс, Брендан Махер

В ролях: Маржена Годеки, Дэвид Хофлин, Джеффри Уокер, Алекс Пиндер, Нина Лэндис, Лиз Берч, Брук Андерсон, Николас Белл, Тони Бриггс, Лорен Хьюитт

Описание: Сериал о прекрасной Нери, ее друзьях, Джейсоне и Бретте, юных жителях подводной научно-исследовательской станции ОРКА. Нери, девочка из океана — смелая и находчивая, может плавать с необычайной скоростью. Но самая необычная ее способность — телепатически разговаривать и понимать 40-тоннового горбатого кита по имени Чарли.



Страна: Австралия
Продолжительность: 13x ~ 24 мин
Перевод: Профессиональный (многоголосый, закадровый) - Арк-ТВ по заказу ГТРК "Культура" + Оригинал (английский)

Файл
Формат: AVI
Качество: DVDRip
Видео: 512x384, (4:3), XviD, ~1900 Кбит/сек, 25,000 кадров/сек
Аудио №1: MP3, 2 канала, 128 Кбит/сек, 48,0 КГц
Аудио №2: MP3, 2 канала, 128 Кбит/сек, 48,0 КГц

АНОНСЫ ПОПУЛЯРНЫХ РАЗДАЧ
Общее
Полное имя : E:FilmOcean Girl 1Ocean.Girl.1x01.Strange.Encounters.DVDRip.Rus.Eng.avi
Формат : AVI
Формат/Информация : Audio Video Interleave
Размер файла : 373 Мбайт
Продолжительность : 23 м.
Общий поток : 2251 Кбит/сек
Программа кодирования : VirtualDubMod 1.5.10.2 (build 2540/release)
Библиотека кодирования : VirtualDubMod build 2540/release

Видео
Идентификатор : 0
Формат : MPEG-4 Visual
Параметр BVOP формата : Да
Параметр QPel формата : Нет
Параметр GMC формата : Без точки перехода
Параметр матрицы формата : Default (H.263)
Идентификатор кодека : XVID
Идентификатор кодека/Подсказка : XviD
Продолжительность : 23 м.
Битрейт : 1981 Кбит/сек
Ширина : 512 пикселей
Высота : 384 пикселя
Соотношение сторон : 4:3
Частота кадров : 25,000 кадров/сек
Цветовое пространство : YUV
Субдискретизация насыщенности : 4:2:0
Битовая глубина : 8 бит
Тип развёртки : Прогрессивная
Метод сжатия : С потерями
Бит/(Пиксели*Кадры) : 0.403
Размер потока : 328 Мбайт (88%)

Аудио #1
Идентификатор : 1
Формат : MPEG Audio
Версия формата : Version 1
Профиль формата : Layer 3
Режим : Joint stereo
Расширение режима : MS Stereo
Идентификатор кодека : 55
Идентификатор кодека/Подсказка : MP3
Продолжительность : 23 м.
Вид битрейта : Постоянный
Битрейт : 128 Кбит/сек
Каналы : 2 канала
Частота : 48,0 КГц
Метод сжатия : С потерями
Размер потока : 21,2 Мбайт (6%)
Выравнивание : Соединение по промежуткам
Продолжительность промежутка : 40 мс. (1,00 видеокадр)
Время предзагрузки промежутка : 504 мс.

Аудио #2
Идентификатор : 2
Формат : MPEG Audio
Версия формата : Version 1
Профиль формата : Layer 3
Режим : Joint stereo
Расширение режима : MS Stereo
Идентификатор кодека : 55
Идентификатор кодека/Подсказка : MP3
Продолжительность : 23 м.
Вид битрейта : Постоянный
Битрейт : 128 Кбит/сек
Каналы : 2 канала
Частота : 48,0 КГц
Метод сжатия : С потерями
Размер потока : 21,2 Мбайт (6%)
Выравнивание : Разделение по промежуткам
Продолжительность промежутка : 40 мс. (1,00 видеокадр)
Время предзагрузки промежутка : 500 мс.



Скачать Девочка.из.океана.Ocean.Girl.(сезон.01).(Марк.Дефрист.и.др.).[1994.фантастика.фэнтези.боевик.приключения.семейный.DVDRip].[MVO]+[Eng].torrent без регистрации
Золото ЗОЛОТАЯ РАЗДАЧА! СКАЧАННОЕ НЕ ЗАСЧИТЫВАЕТСЯ! Золото
Дата: Зарегистрирован   [ Тип: внутренний ] Как тут cкачать?
MAGNET ссылка
MAGNET ссылка


Скачать .torrent

25 KB

Статус: проверено DHT
Скачан: торрент - 55 раз, раздача полностью - 13 раз
Размер: 4,74 GB
Оценка:  - (Голосов: 0)
Поблагодарили: 0
Поделиться ссылкой на эту раздачу с друзьями:
В контактеFacebookОдноклассникиTwitterLivejournalМой МирLiveinternet
 

 
Показать сообщения:    


Вы не можете начинать темы
Вы не можете отвечать на сообщения
Вы не можете редактировать свои сообщения
Вы не можете удалять свои сообщения
Вы не можете голосовать в опросах
Вы не можете прикреплять файлы к сообщениям
Вы можете скачивать файлы