Loading...
Error

Скачать Милая Рози О'Грэйди / Sweet Rosie O'Grady (Ирвинг Каммингс) [1943, мюзикл, DVDRip] [DVO]+[Оригинал] торрент без регистрации

 
Статистика раздачи
Размер:  1,37 GB   |    Скачан:  60 раз
Сидов:  1  [  0 KB/s  ]  
 
Автор Сообщение

Marsianka

[] 

Информация о фильме
Название: Милая Рози О'Грэйди
Оригинальное название: Sweet Rosie O'Grady
Год выхода: 1943
Жанр: мюзикл
Режиссер: Ирвинг Каммингс
В ролях: Бетти Грэйбл, Роберт Янг, Адольф Менжу, Реджинальд Гардинер, Вирджиния Грей, Фил Риган, Сиг Руман, Алан Дайнхарт, Хобарт Кавано, Фрэнк Орт

Описание: Звезда лондонского мюзик-холла Мадлен Марлоу, приехавшая покорять Нью-Йорк, становится мишенью для едких насмешек местного репортера Сэма Маги. В ответ королева бурлеска устраивает такой переполох, что публичным посмешищем оказывается Сэм.


Страна: США
Продолжительность: 01:15:52
Перевод: Профессиональный (двухголосый закадровый) - "Акцент-Про" + Оригинал (английский)

Файл
Формат: AVI
Качество: DVDRip
Видео: 656x480, (4:3), XviD, 2190 Кбит/сек, 23,976 кадра/сек
Аудио №1: AC3, 192 Кбит/сек, 2 канала, 48,0 КГц - "Акцент-Про"
Аудио №2: AC3, 192 Кбит/сек, 2 канала, 48,0 КГц - Оригинал (английский)
Общее
Полное имя : J:Милая Рози О'Грэйди.avi
Формат : AVI
Формат/Информация : Audio Video Interleave
Размер файла : 1,37 Гбайт
Продолжительность : 1 ч. 15 м.
Общий поток : 2588 Кбит/сек
Название фильма : Милая Рози О'Грэйди / Sweet Rosie O'Grady (1943)
Программа кодирования : VirtualDubMod 1.5.10.2 (build 2540/release)
Библиотека кодирования : VirtualDubMod build 2540/release

Видео
Идентификатор : 0
Формат : MPEG-4 Visual
Профиль формата : Advanced Simple@L5
Параметр BVOP формата : 1
Параметр QPel формата : Нет
Параметр GMC формата : Без точки перехода
Параметр матрицы формата : Выборочная
Идентификатор кодека : XVID
Идентификатор кодека/Подсказка : XviD
Продолжительность : 1 ч. 15 м.
Битрейт : 2190 Кбит/сек
Ширина : 656 пикселей
Высота : 480 пикселей
Соотношение сторон : 4:3
Частота кадров : 23,976 кадра/сек
Цветовое пространство : YUV
Субдискретизация насыщенности : 4:2:0
Битовая глубина : 8 бит
Тип развёртки : Прогрессивная
Метод сжатия : С потерями
Бит/(Пиксели*Кадры) : 0.290
Размер потока : 1,16 Гбайт (85%)
Библиотека кодирования : XviD 65

Аудио #1
Идентификатор : 1
Формат : AC-3
Формат/Информация : Audio Coding 3
Расширение режима : CM (complete main)
Параметр Endianness формата : Big
Идентификатор кодека : 2000
Продолжительность : 1 ч. 15 м.
Вид битрейта : Постоянный
Битрейт : 192 Кбит/сек
Каналы : 2 канала
Расположение каналов : Front: L R
Частота : 48,0 КГц
Метод сжатия : С потерями
Размер потока : 104 Мбайт (7%)
Выравнивание : Разделение по промежуткам
Продолжительность промежутка : 42 мс. (1,00 видеокадр)
Время предзагрузки промежутка : 500 мс.
Заголовок : Профессиональный (двухголосый, закадровый) Культура

Аудио #2
Идентификатор : 2
Формат : AC-3
Формат/Информация : Audio Coding 3
Расширение режима : CM (complete main)
Параметр Endianness формата : Big
Идентификатор кодека : 2000
Продолжительность : 1 ч. 15 м.
Вид битрейта : Постоянный
Битрейт : 192 Кбит/сек
Каналы : 2 канала
Расположение каналов : Front: L R
Частота : 48,0 КГц
Метод сжатия : С потерями
Размер потока : 104 Мбайт (7%)
Выравнивание : Разделение по промежуткам
Продолжительность промежутка : 42 мс. (1,00 видеокадр)
Время предзагрузки промежутка : 500 мс.
Заголовок : Английский



Скачать Милая.Рози.О'Грэйди.Sweet.Rosie.O'Grady.(Ирвинг.Каммингс).[1943.мюзикл.DVDRip].[DVO]+[Оригинал].torrent без регистрации
Золото ЗОЛОТАЯ РАЗДАЧА! СКАЧАННОЕ НЕ ЗАСЧИТЫВАЕТСЯ! Золото
Дата: Зарегистрирован   [ Тип: внутренний ] Как тут cкачать?
MAGNET ссылка
MAGNET ссылка


Скачать .torrent

14 KB

Статус: проверено DHT
Скачан: торрент - 60 раз, раздача полностью - 11 раз
Размер: 1,37 GB
Оценка:  - (Голосов: 0)
Поблагодарили: 0
Поделиться ссылкой на эту раздачу с друзьями:
В контактеFacebookОдноклассникиTwitterLivejournalМой МирLiveinternet
 

 
Показать сообщения:    


Вы не можете начинать темы
Вы не можете отвечать на сообщения
Вы не можете редактировать свои сообщения
Вы не можете удалять свои сообщения
Вы не можете голосовать в опросах
Вы не можете прикреплять файлы к сообщениям
Вы можете скачивать файлы