Loading...
Error

Скачать Лучшие из Кунг Фу Шаолиня / Wan fa gui zong yi Shao Lin (Шао-Пенг Чен, Джен-Тао Чанг) [1976, боевик, DVDRip] [AVO (Сергей Кузнецов)] торрент без регистрации

 
Статистика раздачи
Размер:  1,37 GB   |    Скачан:  38 раз
Сидов:  1  [  0 KB/s  ]  
 
Автор Сообщение

Marsianka

[] 

Информация о фильме
Название: Лучшие из Кунг Фу Шаолиня
Оригинальное название: Wan fa gui zong yi Shao Lin
Год выхода: 1976
Жанр: боевик
Режиссер: Шао-Пенг Чен, Джен-Тао Чанг
В ролях: Бай Ин, Шао-Пенг Чен, Тинг Чао, Кан Чин, Вэй Ху, Куан-синь Хуан, Филлип Ко, Фа Йуан Ли, Клифф Лок, Чун-ер Ланг

Описание: Когда бушуют гражданские беспорядки у стен Храма Шаолинь, Клифф Лок должен совершить опасное путешествие в Шаолинь и встретиться с восемнадцатью бронзовыми бойцами.



Страна: Тайвань
Продолжительность: 01:15:53
Перевод: Авторский (одноголосый закадровый) - Сергей Кузнецов

Файл
Формат: AVI
Качество: DVDRip
Видео: 704x288, (2,40:1), XviD, 2376 Кбит/сек, 25,000 кадров/сек
Аудио: AC3, 2 канала, 192 Кбит/сек, 48,0 КГц
Format : AVI
Format/Info : Audio Video Interleave
File size : 1,37 Гбайт
Duration : 1 ч. 15 м.
Overall bit rate : 2578 Кбит/сек
Writing application : VirtualDubMod 1.5.10.2 (build 2540/release)
Writing library : VirtualDubMod build 2540/release

Видео
ID : 0
Format : MPEG-4 Visual
Format profile : Advanced Simple@L5
Format settings, BVOP : 1
Format settings, QPel : Нет
Format settings, GMC : Без точки перехода
Format settings, Matrix : Default (MPEG)
Codec ID : XVID
Codec ID/Hint : XviD
Duration : 1 ч. 15 м.
Bit rate : 2376 Кбит/сек
Width : 704 пикселя
Height : 288 пикселей
Display aspect ratio : 2,40:1
Frame rate : 25,000 кадров/сек
Color space : YUV
Chroma subsampling : 4:2:0
Bit depth : 8 бит
Scan type : Прогрессивная
Compression mode : С потерями
Bits/(Pixel*Frame) : 0.469
Stream size : 1,26 Гбайт (92%)
Writing library : XviD 1.2.1 (UTC 2008-12-04)

Аудио
ID : 1
Format : AC-3
Format/Info : Audio Coding 3
Mode extension : CM (complete main)
Format settings, Endianness : Big
Codec ID : 2000
Duration : 1 ч. 15 м.
Bit rate mode : Постоянный
Bit rate : 192 Кбит/сек
Channel(s) : 2 канала
Channel positions : Front: L R
Sampling rate : 48,0 КГц
Bit depth : 16 бит
Compression mode : С потерями
Stream size : 104 Мбайт (7%)
Alignment : Разделение по промежуткам
Interleave, duration : 40 мс. (1,00 видеокадр)
Interleave, preload duration : 500 мс.



Скачать Лучшие.из.Кунг.Фу.Шаолиня.Wan.fa.gui.zong.yi.Shao.Lin.(Шао-Пенг.Чен.Джен-Тао.Чанг).[1976.боевик.DVDRip].[AVO.(Сергей.Кузнецов)].torrent без регистрации
Золото ЗОЛОТАЯ РАЗДАЧА! СКАЧАННОЕ НЕ ЗАСЧИТЫВАЕТСЯ! Золото
Дата: Зарегистрирован   [ Тип: внутренний ] Как тут cкачать?
MAGNET ссылка
MAGNET ссылка


Скачать .torrent

14 KB

Статус: проверено DHT
Скачан: торрент - 38 раз, раздача полностью - 3 раз
Размер: 1,37 GB
Оценка:  - (Голосов: 0)
Поблагодарили: 0
Поделиться ссылкой на эту раздачу с друзьями:
В контактеFacebookОдноклассникиTwitterLivejournalМой МирLiveinternet
 

 
Показать сообщения:    


Вы не можете начинать темы
Вы не можете отвечать на сообщения
Вы не можете редактировать свои сообщения
Вы не можете удалять свои сообщения
Вы не можете голосовать в опросах
Вы не можете прикреплять файлы к сообщениям
Вы можете скачивать файлы