Loading...
Error

Скачать Водный мир / Waterworld (Кевин Рейнольдс) [1995, фантастика, боевик, приключения, ..., DVDRip] [Director's Cut] [MVO]x2+[AVO]x2+[VO]+[Sub]x2 торрент без регистрации

 
Статистика раздачи
Размер:  7,92 GB   |    Скачан:  49 раз
Сидов:  1  [  0 KB/s  ]  
 
Автор Сообщение

Marsianka

[] 

Информация о фильме
Название: Водный мир
Оригинальное название: Waterworld
Год выхода: 1995
Жанр: фантастика, боевик, приключения, ...
Режиссер: Кевин Рейнольдс
В ролях: Кевин Костнер, Деннис Хоппер, Джинн Трипплхорн, Тина Мажорино, Майкл Джитер, Джек Блэк, Ким Коутс, Чайм Джирафи, Рик Авилес, Р.Д. Колл, ...

О фильме: В далеком будущем полярные снега растаяли, покрыв всю Землю водой. Авторы погружают нас в фантастический мир немногочисленных людей, живущих на воде, где самым дорогим являются пресная вода, земля, еда, сигареты и т. п.
«Курильщики» убивают, грабят, обращают в рабство — используют двигатели внутреннего сгорания. Все остальные пытаются выжить, кто как может, а Кевин Костнер плавает сам по себе на своей фантастической лодке, но объединяет их всех одно — все они ищут остров.
В одной из колоний живут очень красивая женщина и девочка с татуировкой на спине. А татуировка эта — часть карты, на которой и указан этот остров. Естественно, за ней и охотятся «курильщики»…



Страна: США
Студия: Universal Pictures, Gordon Company, Davis Entertainment
Продолжительность: 02:56:02

Профессиональный (многоголосный, закадровый) студия «Кравец» (С. Р. И.)
Профессиональный (многоголосный, закадровый) Киномания
Авторский (одноголосый, закадровый) Гаврилов Андрей Юрьевич
Авторский (одноголосый, закадровый) Немахов Юрий (Yuriy Demigod)
Любительский (одноголосый, закадровый) frostyden
Субтитры
Файл
Кодек: x264
Качество: DVDRip
Видео: 852x464, 4200 kbps, 23,976 fps

Аудио #1: AC-3, 6 ch, 448 kbps (Rus) - MVO студия Кравец (С. Р. И.)
Аудио #2: AC-3, 6 ch, 384 kbps (Rus) - MVO Киномания
Аудио #3: AC-3, 6 ch, 448 kbps (Rus) - AVO Гаврилов Андрей Юрьевич
Аудио #4: AC-3, 6 ch, 384 kbps (Rus) - AVO Немахов Юрий (Yuriy Demigod)
Аудио #5: AC-3, 2 ch, 192 kbps (Rus) - VO frostyden
Аудио #6: AC-3, 6 ch, 384 kbps (Eng)
Субтитры: Русские (VobSub), Английские (VobSub)
IMDb утверждает, что существуют две версии фильма.
Одна из них продолжительностью - 2 hr 15 min (135 min)
Другая, которая представлена здесь - 2 hr 56 min (176 min) (director's cut) (USA) - выходила только на DVD.
Исходником для рипа послужило «Специальное Российское Издание» - С. Р. И.

x264 [info]: frame I:1911 Avg QP:17.51 size: 66911
x264 [info]: frame P:60819 Avg QP:19.65 size: 37934
x264 [info]: frame B:190516 Avg QP:21.45 size: 16320
x264 [info]: consecutive B-frames: 1.9% 3.3% 8.8% 40.2% 19.7% 22.7% 2.2% 0.6% 0.5%

Общее
Уникальный идентификатор : 230273852222457285488848762944728189093 (0xAD3D217834FD9733B5EFFBD342C9C8A5)
Полное имя : Водный мир (Waterworld) 1995 DVDRip Director's Cut.mkv
Формат : Matroska
Версия формата : Version 2
Размер файла : 7,92 Гбайт
Продолжительность : 2 ч. 56 м.
Общий поток : 6445 Кбит/сек
Дата кодирования : UTC 2015-11-24 20:12:28
Программа кодирования : mkvmerge v4.0.0 ('The Stars were mine') сборка от Jun 6 2010 16:18:42
Библиотека кодирования : libebml v1.0.0 + libmatroska v1.0.0

Видео
Идентификатор : 1
Формат : AVC
Формат/Информация : Advanced Video Codec
Профиль формата : High@L4.1
Параметр CABAC формата : Да
Параметр ReFrames формата : 12 кадров
Идентификатор кодека : V_MPEG4/ISO/AVC
Продолжительность : 2 ч. 56 м.
Битрейт : 4200 Кбит/сек
Ширина : 852 пикселя
Высота : 464 пикселя
Соотношение сторон : 1,85:1
Режим частоты кадров : Постоянный
Частота кадров : 23,976 кадра/сек
Цветовое пространство : YUV
Субдискретизация насыщенности : 4:2:0
Битовая глубина : 8 бит
Тип развёртки : Прогрессивная
Бит/(Пиксели*Кадры) : 0.443
Размер потока : 5,01 Гбайт (63%)
Библиотека кодирования : x264 core 146 r2538 121396c
Настройки программы : cabac=1 / ref=12 / deblock=1:-3:-3 / analyse=0x3:0x133 / me=umh / subme=11 / psy=1 / psy_rd=1.00:0.00 / mixed_ref=1 / me_range=32 / chroma_me=1 / trellis=2 / 8x8dct=1 / cqm=0 / deadzone=21,11 / fast_pskip=1 / chroma_qp_offset=-4 / threads=12 / lookahead_threads=2 / sliced_threads=0 / nr=0 / decimate=0 / interlaced=0 / bluray_compat=0 / constrained_intra=0 / bframes=8 / b_pyramid=2 / b_adapt=2 / b_bias=0 / direct=3 / weightb=1 / open_gop=0 / weightp=2 / keyint=240 / keyint_min=23 / scenecut=40 / intra_refresh=0 / rc_lookahead=60 / rc=2pass / mbtree=0 / bitrate=4200 / ratetol=1.0 / qcomp=0.60 / qpmin=0 / qpmax=69 / qpstep=4 / cplxblur=20.0 / qblur=0.5 / vbv_maxrate=50000 / vbv_bufsize=62500 / nal_hrd=none / filler=0 / ip_ratio=1.40 / pb_ratio=1.30 / aq=1:0.80
Язык : English
Default : Нет
Forced : Нет

Аудио #1
Идентификатор : 2
Формат : AC-3
Формат/Информация : Audio Coding 3
Расширение режима : CM (complete main)
Параметр Endianness формата : Big
Идентификатор кодека : A_AC3
Продолжительность : 2 ч. 56 м.
Вид битрейта : Постоянный
Битрейт : 448 Кбит/сек
Каналы : 6 каналов
Расположение каналов : Front: L C R, Side: L R, LFE
Частота : 48,0 КГц
Метод сжатия : С потерями
Размер потока : 564 Мбайт (7%)
Заголовок : MVO студия Кравец (С. Р. И.)
Язык : Russian
Default : Нет
Forced : Нет

Аудио #2
Идентификатор : 3
Формат : AC-3
Формат/Информация : Audio Coding 3
Расширение режима : CM (complete main)
Параметр Endianness формата : Big
Идентификатор кодека : A_AC3
Продолжительность : 2 ч. 56 м.
Вид битрейта : Постоянный
Битрейт : 384 Кбит/сек
Каналы : 6 каналов
Расположение каналов : Front: L C R, Side: L R, LFE
Частота : 48,0 КГц
Метод сжатия : С потерями
Размер потока : 484 Мбайт (6%)
Заголовок : MVO Киномания
Язык : Russian
Default : Нет
Forced : Нет

Аудио #3
Идентификатор : 4
Формат : AC-3
Формат/Информация : Audio Coding 3
Расширение режима : CM (complete main)
Параметр Endianness формата : Big
Идентификатор кодека : A_AC3
Продолжительность : 2 ч. 56 м.
Вид битрейта : Постоянный
Битрейт : 448 Кбит/сек
Каналы : 6 каналов
Расположение каналов : Front: L C R, Side: L R, LFE
Частота : 48,0 КГц
Метод сжатия : С потерями
Размер потока : 564 Мбайт (7%)
Заголовок : AVO Гаврилов Андрей Юрьевич
Язык : Russian
Default : Нет
Forced : Нет

Аудио #4
Идентификатор : 5
Формат : AC-3
Формат/Информация : Audio Coding 3
Расширение режима : CM (complete main)
Параметр Endianness формата : Big
Идентификатор кодека : A_AC3
Продолжительность : 2 ч. 56 м.
Вид битрейта : Постоянный
Битрейт : 384 Кбит/сек
Каналы : 6 каналов
Расположение каналов : Front: L C R, Side: L R, LFE
Частота : 48,0 КГц
Метод сжатия : С потерями
Размер потока : 484 Мбайт (6%)
Заголовок : AVO Немахов Юрий (Yuriy Demigod)
Язык : Russian
Default : Нет
Forced : Нет

Аудио #5
Идентификатор : 6
Формат : AC-3
Формат/Информация : Audio Coding 3
Расширение режима : CM (complete main)
Параметр Endianness формата : Big
Идентификатор кодека : A_AC3
Продолжительность : 2 ч. 56 м.
Вид битрейта : Постоянный
Битрейт : 192 Кбит/сек
Каналы : 2 канала
Расположение каналов : Front: L R
Частота : 48,0 КГц
Метод сжатия : С потерями
Размер потока : 242 Мбайт (3%)
Заголовок : VO frostyden
Язык : Russian
Default : Нет
Forced : Нет

Аудио #6
Идентификатор : 7
Формат : AC-3
Формат/Информация : Audio Coding 3
Расширение режима : CM (complete main)
Параметр Endianness формата : Big
Идентификатор кодека : A_AC3
Продолжительность : 2 ч. 56 м.
Вид битрейта : Постоянный
Битрейт : 384 Кбит/сек
Каналы : 6 каналов
Расположение каналов : Front: L C R, Side: L R, LFE
Частота : 48,0 КГц
Метод сжатия : С потерями
Размер потока : 484 Мбайт (6%)
Язык : English
Default : Нет
Forced : Нет

Текст #1
Идентификатор : 8
Формат : VobSub
Режим смешивания : zlib
Идентификатор кодека : S_VOBSUB
Идентификатор кодека/Информация : Picture based subtitle format used on DVDs
Язык : Russian
Default : Нет
Forced : Нет

Текст #2
Идентификатор : 9
Формат : VobSub
Режим смешивания : zlib
Идентификатор кодека : S_VOBSUB
Идентификатор кодека/Информация : Picture based subtitle format used on DVDs
Язык : English
Default : Нет
Forced : Нет



Скачать Водный.мир.Waterworld.(Кевин.Рейнольдс).[1995.фантастика.боевик.приключения.DVDRip].[Director's.Cut].[MVO]x2+[AVO]x2+[VO]+[Sub]x2.torrent без регистрации
Золото ЗОЛОТАЯ РАЗДАЧА! СКАЧАННОЕ НЕ ЗАСЧИТЫВАЕТСЯ! Золото
Дата: Зарегистрирован   [ Тип: внутренний ] Как тут cкачать?
MAGNET ссылка
MAGNET ссылка


Скачать .torrent

40 KB

Статус: проверено DHT
Скачан: торрент - 49 раз, раздача полностью - 12 раз
Размер: 7,92 GB
Оценка:  - (Голосов: 0)
Поблагодарили: 1
Поделиться ссылкой на эту раздачу с друзьями:
В контактеFacebookОдноклассникиTwitterLivejournalМой МирLiveinternet
 

 
Показать сообщения:    


Вы не можете начинать темы
Вы не можете отвечать на сообщения
Вы не можете редактировать свои сообщения
Вы не можете удалять свои сообщения
Вы не можете голосовать в опросах
Вы не можете прикреплять файлы к сообщениям
Вы можете скачивать файлы