Loading...
Error

Скачать Молодые стрелки 2 / Young Guns II (Джефф Мерфи) [1990, Вестерн, HDTVRip] торрент без регистрации

 
Статистика раздачи
Размер:  750 MB   |    Скачан:  46 раз

Полного источника не было: 6 месяцев

 
Автор Сообщение

Шкипер

[] 


Молодые стрелки 2 / Young Guns II


Год выпуска: 1990
Выпущено: США
Жанр: Вестерн
Продолжительность: 01:44:00
Перевод: Профессиональный (многоголосый)
Субтитры: Отсутствует

Режиссер: Джефф Мерфи

В ролях: Эмилио Эстевес, Кифер Сазерлэнд, Лу Даймонд Филлипс, Кристиан Слэйтер, Уильям Петерсен, Элан Рак, Бэлтазар Гетти, Джеймс Коберн, Леон Риппи, Р. Д. Колл, Роберт Кнеппер, Дженни Райт, Вигго Мортенсен

Описание: Фильм-продолжение. Новый губернатор территории объявляет войну всем преступникам, бывшим и нынешним. Док (Сазерлэнд) и Чавес (Филлипс) схвачены и предстанут перед судом. Билли Кида предают, но он бежит и даже спасает своих друзей. Гэрретт оставляет банду и становится шерифом, получив задание покончить с Билли. Билли никогда не уклонялся от драки. Он собирает новую банду, и шериф Пэт Гэрретт выслеживает своего старого друга Билли Кида...

Релиз от:







Качество: HDTVRip
Формат: AVI
Видео кодек: XviD
Аудио кодек: MP3
Видео: 640x272 (2.35:1), 23.976 fps, XviD build 73 ~870 kbps avg, 0.21 bit/pixel
Аудио: 48 kHz, MPEG Layer 3, 2 ch, ~128.00 kbps avg
General
Complete name : E:Изготовление риповYoung.Guns.II.1990.HDTVrip by shkiper.avi
Format : AVI
Format/Info : Audio Video Interleave
File size : 750 MiB
Duration : 1h 44mn
Overall bit rate : 1 008 Kbps
Writing application : VirtualDubMod 1.5.10.3 | www.virtualdub-fr.org || (build 2550/release)
Writing library : VirtualDubMod build 2550/release

Video
ID : 0
Format : MPEG-4 Visual
Format profile : Advanced Simple@L5
Format settings, BVOP : 1
Format settings, QPel : No
Format settings, GMC : No warppoints
Format settings, Matrix : Custom
Codec ID : XVID
Codec ID/Hint : XviD
Duration : 1h 44mn
Bit rate : 870 Kbps
Width : 640 pixels
Height : 272 pixels
Display aspect ratio : 2.35:1
Frame rate : 23.976 fps
Color space : YUV
Chroma subsampling : 4:2:0
Bit depth : 8 bits
Scan type : Progressive
Compression mode : Lossy
Bits/(Pixel*Frame) : 0.209
Stream size : 648 MiB (86%)
Writing library : XviD 73

Audio
ID : 1
Format : MPEG Audio
Format version : Version 1
Format profile : Layer 3
Mode : Joint stereo
Mode extension : MS Stereo
Codec ID : 55
Codec ID/Hint : MP3
Duration : 1h 43mn
Bit rate mode : Constant
Bit rate : 128 Kbps
Channel(s) : 2 channels
Sampling rate : 48.0 KHz
Compression mode : Lossy
Stream size : 95.2 MiB (13%)
Alignment : Aligned on interleaves
Interleave, duration : 42 ms (1.00 video frame)
Interleave, preload duratio : 504 ms
Writing library : LAME3.99r
Encoding settings : -m j -V 4 -q 2 -lowpass 17 -b 128





Скачать Молодые.стрелки.2.Young.Guns.II.(Джефф.Мерфи).[1990.Вестерн.HDTVRip].torrent без регистрации
Золото ЗОЛОТАЯ РАЗДАЧА! СКАЧАННОЕ НЕ ЗАСЧИТЫВАЕТСЯ! Золото
Дата: Зарегистрирован   [ Тип: внутренний ] Как тут cкачать?
MAGNET ссылка
MAGNET ссылка


Скачать .torrent

15 KB

Статус: * не проверено
Скачан: торрент - 46 раз, раздача полностью - 0 раз
Размер: 750 MB
Оценка:  3 (Голосов: 1)
Поблагодарили: 1
Поделиться ссылкой на эту раздачу с друзьями:
В контактеFacebookОдноклассникиTwitterLivejournalМой МирLiveinternet
 

 
Показать сообщения:    


Вы не можете начинать темы
Вы не можете отвечать на сообщения
Вы не можете редактировать свои сообщения
Вы не можете удалять свои сообщения
Вы не можете голосовать в опросах
Вы не можете прикреплять файлы к сообщениям
Вы можете скачивать файлы