Loading...
Error

Скачать Человек в высоком замке / The Man in the High Castle (Сезон 01) (Дэвид Семел) [2015, фантастика, триллер, драма, WEBRip] [MVO] (Jaskier) торрент без регистрации

 
Статистика раздачи
Размер:  6 GB   |    Скачан:  59 раз
Сидов:  1  [  0 KB/s  ]  
 
Автор Сообщение

leon030982

[] 


Человек в высоком замке / The Man in the High Castle


Год выпуска: 2015
Страна: США
Жанр: фантастика, триллер, драма
Продолжительность: 10 x ~ 00:59:00
Перевод: Професиональный (многоголосый, закадровый) [Студия Jaskier]
Cубтитры: нет

Режиссер: Дэвид Семел / David Semel

В ролях: Алекса Давалос, Руперт Эванс, Люк Клеинтенк, DJ Куаллс, Джоэль де ла Фуэнте, Кэри-Хироюки Тагава, Руфус Сьюэлл, Майкл Рисполи, Джеффри Блейк, Бернхард Форхер

Описание:
Германия и Япония выиграли Вторую мировую. Америка разделена пополам между победителями, но, разумеется, спустя много лет после поражения (действие разворачивается в 1962-м) сознательные американцы организуют глубоко засекреченное подполье. Занимаются повстанцы в основном распространением странной кинохроники, на которой показана победа в войне союзнических войск. Именно с этими пленками в руках в нейтральную зону между двумя Америками отправляются Джо и Джулс — юноша и девушка, пробующие свои силы в борьбе с режимом.



Качество: WEBRip
Формат: AVI
Видео кодек: XvID
Аудио кодек: MP3
Видео: XviD, 624x352, 25 fps, build 73 ~1200 kbps avg, 0.26 bit/pixel
Аудио: 48 kHz, MP3, 2/0 (L,R) ch, ~128 kbps - [MVO]
General
Complete name : E:\The.Man.In.The.High.Castle (S01) Jaskier\Chelovek.V.Vysokom.Zamke.S01E01.Jaskier.avi
Format : AVI
Format/Info : Audio Video Interleave
File size : 499 MiB
Duration : 1h 0mn
Overall bit rate : 1 463 Kbps
Writing application : VirtualDubMod 1.5.10.2 (build 2540/release)
Writing library : VirtualDubMod build 2540/release

Video
ID : 0
Format : MPEG-4 Visual
Format profile : Advanced Simple@L5
Format settings, BVOP : 2
Format settings, QPel : No
Format settings, GMC : No warppoints
Format settings, Matrix : Default (H.263)
Codec ID : XVID
Codec ID/Hint : XviD
Duration : 1h 0mn
Bit rate : 1200 Kbps
Width : 624 pixels
Height : 352 pixels
Display aspect ratio : 16:9
Frame rate : 25.000 fps
Color space : YUV
Chroma subsampling : 4:2:0
Bit depth : 8 bits
Scan type : Progressive
Compression mode : Lossy
Bits/(Pixel*Frame) : 0.174
Stream size : 421 MiB (84%)
Writing library : XviD 64

Audio
ID : 1
Format : MPEG Audio
Format version : Version 1
Format profile : Layer 3
Mode : Joint stereo
Mode extension : MS Stereo
Codec ID : 55
Codec ID/Hint : MP3
Duration : 59mn 38s
Bit rate mode : Constant
Bit rate : 128 Kbps
Channel(s) : 2 channels
Sampling rate : 44.1 KHz
Compression mode : Lossy
Delay relative to video : 4ms
Stream size : 54.6 MiB (11%)
Alignment : Split accross interleaves



Скачать Человек.в.высоком.замке.The.Man.in.the.High.Castle.(Сезон.01).(Дэвид.Семел).[2015.фантастика.триллер.драма.WEBRip].[MVO].(Jaskier).torrent без регистрации
Золото ЗОЛОТАЯ РАЗДАЧА! СКАЧАННОЕ НЕ ЗАСЧИТЫВАЕТСЯ! Золото
Дата: Зарегистрирован   [ Тип: внутренний ] Как тут cкачать?
MAGNET ссылка
MAGNET ссылка


Скачать .torrent

31 KB

Статус: проверено DHT
Скачан: торрент - 59 раз, раздача полностью - 4 раз
Размер: 6 GB
Оценка:  5 (Голосов: 1)
Поблагодарили: 3
Поделиться ссылкой на эту раздачу с друзьями:
В контактеFacebookОдноклассникиTwitterLivejournalМой МирLiveinternet
 

 
Показать сообщения:    


Вы не можете начинать темы
Вы не можете отвечать на сообщения
Вы не можете редактировать свои сообщения
Вы не можете удалять свои сообщения
Вы не можете голосовать в опросах
Вы не можете прикреплять файлы к сообщениям
Вы можете скачивать файлы