Loading...
Error

Скачать К югу от ада / South of Hell (сезон 01) (Элай Рот) [2015, ужасы, фэнтези, триллер, драма, HDTVRip] [DVO (SunshineStudio)] торрент без регистрации

 
Статистика раздачи
Размер:  2,57 GB   |    Скачан:  63 раза

Полного источника не было: 26 минут

 
Автор Сообщение

МихаНЕзатор

[] 

Информация о фильме
Название: К югу от ада
Оригинальное название: South of Hell
Год выхода: 2015
Жанр: ужасы, фэнтези, триллер, драма
Режиссер: Элай Рот

В ролях: Закари Бут, Дэна Фоксворф, Билл Ирвин, Дрю Морлейн, Ламман Ракер, Полина Сингер,Мена Сувари, Анна Шрирам,Барри У. Джеральд мл., Катрин Джеральд

О фильме: Саванна, Джорджия — неуловимый многоликий город, в котором живет сногсшибательная Мария Абаскал, 30-летняя охотница на демонов, зарабатывающая себе этим на жизнь. Мария опытна и бесстрашна в своем преследовании демонов, поселяющихся в людях. Как и те, на кого она охотится, Мария ведет непрекращающуюся борьбу со своим собственным демоном — Абигейл, — которая живет в ней, питаясь злом, которое Мария изгоняет из других. Мария и Абигейл делят на двоих одну душу и судьбу, но поскольку Мария отчаянно пытается одержать верх над Абигейл, ей предстоит узнать, на что способна Абигейл, чтобы остаться ее частью.



Страна: США
Продолжительность: ~00:40:00
Перевод: Любительский (двухголосый, закадровый)

Файл
Качество: HDTVRip
Видео: Xvid, 720x400, ~1200 kbps
Аудио: MP3, 2 ch, 128 kbps

АНОНСЫ ПОПУЛЯРНЫХ РАЗДАЧ


Торрент обновлён, добавлена 8-я серия!

Формат : AVI
Формат/Информация : Audio Video Interleave
Размер файла : 371 Мбайт
Продолжительность : 39 м.
Общий поток : 1309 Кбит/сек
Программа кодирования : Lavf56.25.101

Видео
Идентификатор : 0
Формат : MPEG-4 Visual
Профиль формата : Simple@L5
Параметр BVOP формата : 1
Параметр QPel формата : Нет
Параметр GMC формата : Без точки перехода
Параметр матрицы формата : Default (MPEG)
Идентификатор кодека : XVID
Идентификатор кодека/Подсказка : XviD
Продолжительность : 39 м.
Битрейт : 1167 Кбит/сек
Ширина : 720 пикселей
Высота : 400 пикселей
Соотношение сторон : 16:9
Частота кадров : 29,970 кадров/сек
Цветовое пространство : YUV
Субдискретизация насыщенности : 4:2:0
Битовая глубина : 8 бит
Тип развёртки : Прогрессивная
Метод сжатия : С потерями
Бит/(Пиксели*Кадры) : 0.135
Размер потока : 331 Мбайт (89%)
Библиотека кодирования : XviD 67

Аудио
Идентификатор : 1
Формат : MPEG Audio
Версия формата : Version 1
Профиль формата : Layer 3
Режим : Joint stereo
Расширение режима : MS Stereo
Идентификатор кодека : 55
Идентификатор кодека/Подсказка : MP3
Продолжительность : 39 м.
Вид битрейта : Постоянный
Битрейт : 128 Кбит/сек
Каналы : 2 канала
Частота : 48,0 КГц
Метод сжатия : С потерями
Размер потока : 36,3 Мбайт (10%)
Выравнивание : Соединение по промежуткам
Продолжительность промежутка : 24 мс. (0,72 видеокадр)



Скачать К.югу.от.ада.South.of.Hell.(сезон.01).(Элай.Рот).[2015.ужасы.фэнтези.триллер.драма.HDTVRip].[DVO.(SunshineStudio)].torrent без регистрации
Золото ЗОЛОТАЯ РАЗДАЧА! СКАЧАННОЕ НЕ ЗАСЧИТЫВАЕТСЯ! Золото
Дата: Зарегистрирован   [ Тип: внутренний ] Как тут cкачать?
MAGNET ссылка
MAGNET ссылка


Скачать .torrent

14 KB

Статус: проверено DHT
Скачан: торрент - 63 раз, раздача полностью - 30 раз
Размер: 2,57 GB
Оценка:  - (Голосов: 0)
Поблагодарили: 1
Поделиться ссылкой на эту раздачу с друзьями:
В контактеFacebookОдноклассникиTwitterLivejournalМой МирLiveinternet
 

 
Показать сообщения:    


Вы не можете начинать темы
Вы не можете отвечать на сообщения
Вы не можете редактировать свои сообщения
Вы не можете удалять свои сообщения
Вы не можете голосовать в опросах
Вы не можете прикреплять файлы к сообщениям
Вы можете скачивать файлы