Loading...
Error

Скачать Мастер не на все руки / Master of None (01x01 из 10) (Азиз Ансари, Алан Янг) [ 2015, комедия, WEBRip] [720p] [DVO (Кубик в кубе)]+[Eng]+[Sub Eng] торрент без регистрации

 
Статистика раздачи
Размер:  854 MB   |    Скачан:  47 раз
Сидов:  1  [  0 KB/s  ]  
 
Автор Сообщение

МихаНЕзатор

[] 

Информация о сериале
Название: Мастер не на все руки
Оригинальное название: Master of None
Год выхода: 2015
Жанр: комедия
Авторы идеи: Азиз Ансари /Aziz Ansari/, Алан Янг /Alan Yang/
Режиссеры: Эрик Верхейм /Eric Wareheim/, Азиз Ансари /Aziz Ansari/, Джеймс Понсольдт /James Ponsoldt/ и др.

В ролях: Азиз Ансари /Aziz Ansari/, Ноэль Кристи Уэллс /Noël Wells/, Лина Уэйт /Lena Waithe/, Эрик Верхейм /Eric Wareheim/, Келвин Ю /Kelvin Yu/, Тодд Бэрри /Todd Barry/, Шукат Ансари /Shoukath Ansari/, Х. Джон Бенжамин /H. Jon Benjamin/, Фатима Ансари /Fatima Ansari/, Даниэль Девенпорт /Danielle Davenport/ и др.

О сериале: Главный герой, Дев, мигрировал в новую для себя страну, чтобы наладить жизнь. Он находится в самом расцвете сил, но достичь карьерного роста пока не удается. Несмотря на свой тридцатилетний возраст, Дев испытывает массу трудностей даже в простых вопросах. Живя в Нью-Йорке, он ежедневно томится в выборе того, где бы и что бы перекусить. Каждый новый день приносит ему новые вопросы, а решение дается так сложно. Порой, банальная ситуация приносит ему много переживаний и расстройств. Частенько Дев становится участником нелепых и смешных ситуаций, которые бывают не только в личной жизни, но и на карьерном поприще. Но даже не смотря на эти неурядицы, Дев не теряет ноток оптимизма. Жизнь учит его, демонстрируя, какие трудности приходится пережить мигрантам во время адаптации к жизни в США.

Релиз от:
by messafan

Страна: США
Студии: 3 Arts Entertainment / Universal Television
Продолжительность: 1 x ~ 00:28:00
Перевод: Любительский (двухголосый, закадровый) - Кубик в кубе

Перевод: El_Brujo
Роли озвучивали: Руслан Габидуллин и Ольга Кравцова
Работа со звуком: messafan

Файл
Кодек: H.264
Качество: WEBRip 720p
Видео: 1280x534 at 23.976 fps, x264@L4.1, crf, ~3000 kbps avg
Аудио#1: Russian: 48 kHz, AC3, 3/2 (L,C,R,l,r) + LFE ch, ~384.00 kbps avg |Двухголосый закадровый, Кубик в кубе|
Аудио#2: English: 48 kHz, AC3, 3/2 (L,C,R,l,r) + LFE ch, ~640.00 kbps avg |Оригинал|
Субтитры: English (Full)

АНОНСЫ ПОПУЛЯРНЫХ РАЗДАЧ

01. Plan B / План Б
General
Complete name : Master.of.None.S01E01.Plan.B.720p.WEBRip.KvK.CasStudio.TV.mkv
Format : Matroska
Format version : Version 4 / Version 2
File size : 854 MiB
Duration : 28mn 51s
Overall bit rate : 4 136 Kbps
Movie name : Master of None 01x01 (Plan B) - release by messafan for CasStudio.TV
Encoded date : UTC 2015-12-01 23:51:27
Writing application : mkvmerge v6.7.0 ('Back to the Ground') 64bit built on Jan 8 2014 15:10:52
Writing library : libebml v1.3.0 + libmatroska v1.4.1

Video
ID : 1
Format : AVC
Format/Info : Advanced Video Codec
Format profile : High@L4.1
Format settings, CABAC : Yes
Format settings, ReFrames : 12 frames
Codec ID : V_MPEG4/ISO/AVC
Duration : 28mn 51s
Bit rate : 3 030 Kbps
Width : 1 280 pixels
Height : 534 pixels
Display aspect ratio : 2.40:1
Frame rate mode : Constant
Frame rate : 23.976 fps
Color space : YUV
Chroma subsampling : 4:2:0
Bit depth : 8 bits
Scan type : Progressive
Bits/(Pixel*Frame) : 0.185
Stream size : 625 MiB (73%)
Title : Master.of.None.S01E01.Plan.B.720p.NF.WEBRip.DD5.1.x264-NTb
Writing library : x264 core 144 r2525 40bb568
Encoding settings : cabac=1 / ref=12 / deblock=1:-3:-3 / analyse=0x3:0x133 / me=umh / subme=10 / psy=1 / psy_rd=1.00:0.00 / mixed_ref=1 / me_range=48 / chroma_me=1 / trellis=2 / 8x8dct=1 / cqm=0 / deadzone=21,11 / fast_pskip=0 / chroma_qp_offset=-2 / threads=12 / lookahead_threads=2 / sliced_threads=0 / nr=0 / decimate=0 / interlaced=0 / bluray_compat=0 / constrained_intra=0 / bframes=8 / b_pyramid=2 / b_adapt=2 / b_bias=0 / direct=3 / weightb=1 / open_gop=0 / weightp=2 / keyint=250 / keyint_min=24 / scenecut=40 / intra_refresh=0 / rc=crf / mbtree=0 / crf=17.0 / qcomp=0.70 / qpmin=0 / qpmax=69 / qpstep=4 / ip_ratio=1.40 / pb_ratio=1.30 / aq=3:0.65
Language : English
Default : Yes
Forced : No

Audio #1
ID : 2
Format : AC-3
Format/Info : Audio Coding 3
Mode extension : CM (complete main)
Format settings, Endianness : Big
Codec ID : A_AC3
Duration : 28mn 51s
Bit rate mode : Constant
Bit rate : 384 Kbps
Channel(s) : 6 channels
Channel positions : Front: L C R, Side: L R, LFE
Sampling rate : 48.0 KHz
Compression mode : Lossy
Stream size : 79.3 MiB (9%)
Title : KvK 5.1
Language : Russian
Default : Yes
Forced : No

Audio #2
ID : 3
Format : AC-3
Format/Info : Audio Coding 3
Mode extension : CM (complete main)
Format settings, Endianness : Big
Codec ID : A_AC3
Duration : 28mn 51s
Bit rate mode : Constant
Bit rate : 640 Kbps
Channel(s) : 6 channels
Channel positions : Front: L C R, Side: L R, LFE
Sampling rate : 48.0 KHz
Compression mode : Lossy
Stream size : 132 MiB (15%)
Title : English 5.1
Language : English
Default : No
Forced : No

Text
ID : 4
Format : UTF-8
Codec ID : S_TEXT/UTF8
Codec ID/Info : UTF-8 Plain Text
Title : Eng sub
Language : English
Default : No
Forced : No
Когда раздача ведётся путём добавления новых серий, при каждом добавлении создётся новый торрент. Чтобы начать докачку новой серии, пользователям необходимо сделать следующее:
(1) остановить скачивание,
(2) удалить старый торрент у себя из клиента (старые серии удалять не надо),
(3) скачать новый торрент и запустить его у себя в клиенте вместо старого, при этом указать клиенту путь в старую папку, куда и должно происходить скачивание новых серий.
Ваш клиент при этом должен произвести хеширование (проверку) старой папки (если не производит сам - помогите ему сделать это), и будет докачивать только те серии, которых у вас ещё нет. Старые серии при этом не удаляются, а продолжают раздаваться!
Eсли вы уже удалили старые серии, то предотвратить повторную закачку старых серий можно, отжав галочку в соответсвующих местах при запуске нового торрента. По возможности, желательно не удалять старые серии как можно дольше, чтобы релизёр не столько продолжал раздавать старые серии, а смог сконцентрироваться на новых.



Скачать Мастер.не.на.все.руки.Master.of.None.(01x01.из.10).(Азиз.Ансари.Алан.Янг).[.2015.комедия.WEBRip].[720p].[DVO.(Кубик.в.кубе)]+[Eng]+[Sub.Eng].torrent без регистрации
Золото ЗОЛОТАЯ РАЗДАЧА! СКАЧАННОЕ НЕ ЗАСЧИТЫВАЕТСЯ! Золото
Дата: Зарегистрирован   [ Тип: внутренний ] Как тут cкачать?
MAGNET ссылка
MAGNET ссылка


Скачать .torrent

17 KB

Статус: проверено DHT
Скачан: торрент - 47 раз, раздача полностью - 3 раз
Размер: 854 MB
Оценка:  - (Голосов: 0)
Поблагодарили: 0
Поделиться ссылкой на эту раздачу с друзьями:
В контактеFacebookОдноклассникиTwitterLivejournalМой МирLiveinternet
 

 
Показать сообщения:    


Вы не можете начинать темы
Вы не можете отвечать на сообщения
Вы не можете редактировать свои сообщения
Вы не можете удалять свои сообщения
Вы не можете голосовать в опросах
Вы не можете прикреплять файлы к сообщениям
Вы можете скачивать файлы