Loading...
Error

Скачать Отвязные каникулы / Frog Dreaming (Брайан Тренчард-Смит) [1986, приключения, мистика, семейный, VHSRip] [AVO (Антон Алексеев)] торрент без регистрации

 
Статистика раздачи
Размер:  1,62 GB   |    Скачан:  202 раза
Сидов:  1  [  0 KB/s  ]  
 
Автор Сообщение

Marsianka

[] 

Информация о фильме
Название: Поиск / Сновидение лягушки / Чертов узел / Отвязные каникулы
Оригинальное название: The Quest / Frog Dreaming
Год выхода: 1986
Жанр: приключения, мистика, семейный
Режиссер: Брайан Тренчард-Смит
В ролях: Генри Томас ("Инопланетянин"), Тони Бэрри, Рэйчел Френд, Тэмсин Уэст, Демпси Найт, Джон Эварт, Крис Грегори, Марк Найт, Деннис Миллер, Кэти Мэннинг

О фильме:
Коди - любитель приключений. Он узнает о старинной легенде, в которой говорится, что в озере живет чудовище. Мальчик во что бы то ни стало хочет докопаться до правды. Даже, если для этого придется рисковать жизнью...



Производство: Австралия / Middle Reef, UAA Films, Western Film Productions
Продолжительность: 01:33:03
Перевод: авторский (одноголосый закадровый) [Антон Алексеев]

Файл
Качество: VHSRip
Формат: MKV
Видео: MPEG-4 AVC, 696x472 (4:3), 25.000 fps, 1873 kbps
Аудио #1: русский, AC3 2.0, 48 kHz, 192 kbps
Аудио #2: английский, AC3 2.0, 48 kHz, 384 kbps
Общее
Уникальный идентификатор : 247615858560175340758204091447897584015 (0xBA4914654B31B3209EE103118B39718F)
Полное имя : Frog.Dreaming.1986.VHSRip.mkv
Формат : Matroska
Версия формата : Version 4 / Version 2
Размер файла : 1,62 Гбайт
Продолжительность : 1 ч. 33 м.
Общий поток : 2499 Кбит/сек
Дата кодирования : UTC 2015-10-11 04:36:23
Программа кодирования : mkvmerge v7.9.0 ('Birds') 64bit
Библиотека кодирования : libebml v1.3.1 + libmatroska v1.4.2
DURATION : 01:33:03.904000000
NUMBER_OF_FRAMES : 174497
NUMBER_OF_BYTES : 134013696
_STATISTICS_WRITING_APP : mkvmerge v7.9.0 ('Birds') 64bit
_STATISTICS_WRITING_DATE_UTC : 2015-10-11 04:36:23
_STATISTICS_TAGS : BPS DURATION NUMBER_OF_FRAMES NUMBER_OF_BYTES

Видео
Идентификатор : 1
Формат : AVC
Формат/Информация : Advanced Video Codec
Профиль формата : High@L3
Параметр CABAC формата : Да
Параметр ReFrames формата : 6 кадров
Идентификатор кодека : V_MPEG4/ISO/AVC
Битрейт : 1873 Кбит/сек
Ширина : 696 пикселей
Высота : 472 пикселя
Соотношение сторон : 4:3
Режим частоты кадров : Переменный
Цветовое пространство : YUV
Субдискретизация насыщенности : 4:2:0
Битовая глубина : 8 бит
Тип развёртки : Прогрессивная
Библиотека кодирования : x264 core 120
Настройки программы : cabac=1 / ref=6 / deblock=1:-2:-2 / analyse=0x3:0x133 / me=umh / subme=9 / psy=1 / psy_rd=1.00:0.00 / mixed_ref=1 / me_range=24 / chroma_me=1 / trellis=2 / 8x8dct=1 / cqm=0 / deadzone=21,11 / fast_pskip=0 / chroma_qp_offset=-2 / threads=1 / sliced_threads=0 / nr=0 / decimate=1 / interlaced=0 / bluray_compat=0 / constrained_intra=0 / bframes=6 / b_pyramid=2 / b_adapt=2 / b_bias=0 / direct=3 / weightb=1 / open_gop=0 / weightp=2 / keyint=300 / keyint_min=30 / scenecut=40 / intra_refresh=0 / rc_lookahead=50 / rc=crf / mbtree=1 / crf=19.3 / qcomp=0.60 / qpmin=3 / qpmax=69 / qpstep=4 / ip_ratio=1.40 / aq=1:1.20
Язык : English
Default : Да
Forced : Нет
Цветовой диапазон : Limited
Основные цвета : BT.601 NTSC
Характеристики трансфера : BT.709
Коэффициенты матрицы : BT.601

Аудио #1
Идентификатор : 2
Формат : AC-3
Формат/Информация : Audio Coding 3
Расширение режима : CM (complete main)
Параметр Endianness формата : Big
Идентификатор кодека : A_AC3
Продолжительность : 1 ч. 33 м.
Вид битрейта : Постоянный
Битрейт : 192 Кбит/сек
Каналы : 2 канала
Расположение каналов : Front: L R
Частота : 48,0 КГц
Метод сжатия : С потерями
Размер потока : 128 Мбайт (8%)
Язык : Russian
Default : Да
Forced : Нет

Аудио #2
Идентификатор : 3
Формат : AC-3
Формат/Информация : Audio Coding 3
Расширение режима : CM (complete main)
Параметр Endianness формата : Big
Идентификатор кодека : A_AC3
Продолжительность : 1 ч. 33 м.
Вид битрейта : Постоянный
Битрейт : 384 Кбит/сек
Каналы : 2 канала
Расположение каналов : Front: L R
Частота : 48,0 КГц
Метод сжатия : С потерями
Размер потока : 256 Мбайт (15%)
Язык : English
Default : Нет
Forced : Нет
Перевод: Антон Алексеев
Сведение звука: Diablo
Организация перевода: Minhers76



Скачать Отвязные.каникулы.Frog.Dreaming.(Брайан.Тренчард-Смит).[1986.приключения.мистика.семейный.VHSRip].[AVO.(Антон.Алексеев)].torrent без регистрации
Золото ЗОЛОТАЯ РАЗДАЧА! СКАЧАННОЕ НЕ ЗАСЧИТЫВАЕТСЯ! Золото
Дата: Зарегистрирован   [ Тип: внутренний ] Как тут cкачать?
MAGNET ссылка
MAGNET ссылка


Скачать .torrent

17 KB

Статус: проверено DHT
Скачан: торрент - 202 раз, раздача полностью - 1 раз
Размер: 1,62 GB
Оценка:  - (Голосов: 0)
Поблагодарили: 1
Поделиться ссылкой на эту раздачу с друзьями:
В контактеFacebookОдноклассникиTwitterLivejournalМой МирLiveinternet
 

 
Показать сообщения:    


Вы не можете начинать темы
Вы не можете отвечать на сообщения
Вы не можете редактировать свои сообщения
Вы не можете удалять свои сообщения
Вы не можете голосовать в опросах
Вы не можете прикреплять файлы к сообщениям
Вы можете скачивать файлы