Loading...
Error

Скачать Лемминг / Lemming (Доминик Молл) [2005, триллер, мистика, DVDRip-AVC] [MVO]+[Sub]x2 торрент без регистрации

 
Статистика раздачи
Размер:  2,33 GB   |    Скачан:  48 раз
Сидов:  1  [  0 KB/s  ]  
 
Автор Сообщение

Marsianka

[] 

Информация о фильме
Название: Лемминг
Оригинальное название: Lemming
Год выхода: 2005
Жанр: триллер, мистика
Режиссер: Доминик Молл / Dominik Moll
В ролях: Шарлотта Гинзбур / Charlotte Gainsbourg, Лоран Люка / Laurent Lucas, Андре Дюссолье / André Dussollier, Шарлотта Рэмплинг / Charlotte Rampling

О фильме:
Молодого и талантливого инженера и семьянина Алена Гетти переводят по работе в новый город. Как-то вечером молодая чета приглашает на ужин нового начальника Алена с женой. Однако странная у них получается компания: с одной стороны - молодая и образцовая пара, а с другой - супруги, полные ненависти и отвращения друг к другу. Обстановка за столом накаляется… а в это время на кухне в сливной трубе застревает неизвестно откуда взявшийся лемминг - маленький грызун, обитающий на самом севере Европы. И это только начало загадочной цепочки сюрреалистических событий, которые грозят превратить когда-то прекрасную жизнь молодых людей в ад.


Страна: Франция
Студия: Diaphana Films, France 3 Cinéma, Canal+
Продолжительность: 02:04:48.520
Перевод: Профессиональный (многоголосый закадровый) R5

Файл
Кодек: h.264
Качество: DVDRip-AVC
Видео: 712x544 (1.85:1) @ 1005x544, 25.000 fps, AVC, ~1834 Kbps, 0.189 bits/pixel
Исходник R2!

Русский, 48.0 KHz, AC3, 6 ch, 384 Kbps
Французский, 48.0 KHz, AC3, 6 ch, 448 Kbps
Субтитры:
Английские, VobSub
Русские, SRT(UTF-8)
frame I:1176 Avg QP:15.62 size: 52256
frame P:33790 Avg QP:18.20 size: 20890
frame B:152247 Avg QP:19.47 size: 6232
eneral
Unique ID : 210061304758057097454146821453298456302 (0x9E0855F05FA1E591A9557FD7783AD6EE)
Complete name : I:FilmsLemming.2005.DVDRip-AVC.mkv
Format : Matroska
Format version : Version 4 / Version 2
File size : 2.33 GiB
Duration : 2h 4mn
Overall bit rate : 2 668 Kbps
Encoded date : UTC 2015-12-09 20:37:40
Writing application : mkvmerge v8.6.1 ('Flying') 64bit
Writing library : libebml v1.3.3 + libmatroska v1.4.4
DURATION : 02:01:32.959000000
NUMBER_OF_FRAMES : 667
NUMBER_OF_BYTES : 39488
_STATISTICS_WRITING_APP : mkvmerge v8.6.1 ('Flying') 64bit
_STATISTICS_WRITING_DATE_UTC : 2015-12-09 20:37:40
_STATISTICS_TAGS : BPS DURATION NUMBER_OF_FRAMES NUMBER_OF_BYTES

Video
ID : 1
Format : AVC
Format/Info : Advanced Video Codec
Format profile : High@L4.1
Format settings, CABAC : Yes
Format settings, ReFrames : 11 frames
Codec ID : V_MPEG4/ISO/AVC
Duration : 2h 4mn
Bit rate : 1 834 Kbps
Width : 712 pixels
Height : 544 pixels
Display aspect ratio : 1.85:1
Original display aspect ratio : 1.85:1
Frame rate mode : Constant
Frame rate : 25.000 fps
Color space : YUV
Chroma subsampling : 4:2:0
Bit depth : 8 bits
Scan type : Progressive
Bits/(Pixel*Frame) : 0.189
Stream size : 1.55 GiB (67%)
Writing library : x264 core 148 r2638 7599210
Encoding settings : cabac=1 / ref=11 / deblock=1:0:0 / analyse=0x3:0x133 / me=umh / subme=11 / psy=1 / psy_rd=1.10:0.15 / mixed_ref=1 / me_range=48 / chroma_me=1 / trellis=2 / 8x8dct=1 / cqm=0 / deadzone=21,11 / fast_pskip=0 / chroma_qp_offset=-3 / threads=8 / lookahead_threads=1 / sliced_threads=0 / nr=0 / decimate=0 / interlaced=0 / bluray_compat=0 / constrained_intra=0 / bframes=8 / b_pyramid=2 / b_adapt=2 / b_bias=0 / direct=3 / weightb=1 / open_gop=0 / weightp=2 / keyint=250 / keyint_min=25 / scenecut=40 / intra_refresh=0 / rc_lookahead=60 / rc=2pass / mbtree=0 / bitrate=1834 / ratetol=1.0 / qcomp=0.60 / qpmin=0 / qpmax=69 / qpstep=4 / cplxblur=20.0 / qblur=0.5 / vbv_maxrate=40000 / vbv_bufsize=50000 / nal_hrd=none / filler=0 / ip_ratio=1.40 / pb_ratio=1.30 / aq=1:1.00
Default : No
Forced : No
Color range : Limited
Matrix coefficients : BT.601

Audio #1
ID : 2
Format : AC-3
Format/Info : Audio Coding 3
Mode extension : CM (complete main)
Format settings, Endianness : Big
Codec ID : A_AC3
Duration : 2h 4mn
Bit rate mode : Constant
Bit rate : 384 Kbps
Channel(s) : 6 channels
Channel positions : Front: L C R, Side: L R, LFE
Sampling rate : 48.0 KHz
Compression mode : Lossy
Stream size : 343 MiB (14%)
Language : Russian
Default : Yes
Forced : No

Audio #2
ID : 3
Format : AC-3
Format/Info : Audio Coding 3
Mode extension : CM (complete main)
Format settings, Endianness : Big
Codec ID : A_AC3
Duration : 2h 4mn
Bit rate mode : Constant
Bit rate : 448 Kbps
Channel(s) : 6 channels
Channel positions : Front: L C R, Side: L R, LFE
Sampling rate : 48.0 KHz
Compression mode : Lossy
Stream size : 400 MiB (17%)
Language : French
Default : No
Forced : No

Text #1
ID : 4
Format : VobSub
Muxing mode : zlib
Codec ID : S_VOBSUB
Codec ID/Info : Picture based subtitle format used on DVDs
Language : English
Default : No
Forced : No

Text #2
ID : 5
Format : UTF-8
Codec ID : S_TEXT/UTF8
Codec ID/Info : UTF-8 Plain Text
Language : Russian
Default : No
Forced : No

Menu
00:00:00.000 : en:Chapter 01
00:04:45.480 : en:Chapter 02
00:08:56.400 : en:Chapter 03
00:17:59.400 : en:Chapter 04
00:27:03.960 : en:Chapter 05
00:34:46.440 : en:Chapter 06
00:45:59.880 : en:Chapter 07
00:57:39.600 : en:Chapter 08
01:07:59.760 : en:Chapter 09
01:15:27.520 : en:Chapter 10
01:25:58.600 : en:Chapter 11
01:33:37.480 : en:Chapter 12
01:41:29.800 : en:Chapter 13
02:01:22.480 : en:Chapter 14
Релиз от: Temperest



Скачать Лемминг.Lemming.(Доминик.Молл).[2005.триллер.мистика.DVDRip-AVC].[MVO]+[Sub]x2.torrent без регистрации
Золото ЗОЛОТАЯ РАЗДАЧА! СКАЧАННОЕ НЕ ЗАСЧИТЫВАЕТСЯ! Золото
Дата: Зарегистрирован   [ Тип: внутренний ] Как тут cкачать?
MAGNET ссылка
MAGNET ссылка


Скачать .torrent

12 KB

Статус: проверено DHT
Скачан: торрент - 48 раз, раздача полностью - 9 раз
Размер: 2,33 GB
Оценка:  - (Голосов: 0)
Поблагодарили: 1
Поделиться ссылкой на эту раздачу с друзьями:
В контактеFacebookОдноклассникиTwitterLivejournalМой МирLiveinternet
 

 
Показать сообщения:    


Вы не можете начинать темы
Вы не можете отвечать на сообщения
Вы не можете редактировать свои сообщения
Вы не можете удалять свои сообщения
Вы не можете голосовать в опросах
Вы не можете прикреплять файлы к сообщениям
Вы можете скачивать файлы