Loading...
Error

Скачать Лемминг / Lemming (Доминик Молль) [2005, триллер, драма, детектив, DVDRip] [MVO]+[Оригинал]+[Sub] торрент без регистрации

 
Статистика раздачи
Размер:  2,19 GB   |    Скачан:  44 раза
Сидов:  1  [  0 KB/s  ]  
 
Автор Сообщение

Marsianka

[] 

Жанр: триллер, драма, детектив
Страна: Франция
Режиссер: Доминик Молль
В ролях: Лоран Люка, Шарлотта Генсбур, Шарлотта Рэмплинг, Андре Дюссолье, Жак Боннаффе, Вероник Афхольдер, Мишель Кассань, Флоранс Десиль, Эммануель Гайе, Феликс Гонзалес

Сюжет фильма: Молодого и талантливого инженера и семьянина Алена Гетти переводят по работе в новый город. Как-то вечером молодая чета приглашает на ужин нового начальника Алена с женой. Однако семьи оказываются совершенно не похожими одна на другую: с одной стороны — молодая и образцовая, а с другой — пара, полная ненависти и отвращения. Ужасный ужин и таинственный мертвый грызун, обнаруженный в водостоке, грозят превратить когда-то прекрасную жизнь молодых людей в ад…

Мировая премьера: 11 мая 2005
Российская премьера: 25 мая 2006



Продолжительность: 02:04:48
Качество видео: DVDRip (рип с DVD9)
Видео: кодек: XviD, размер кадра: 704x368, битрейт: 1722 кб/с, bit/pixel: 0.266
Аудио #1: язык: Русский, перевод: многоголосый закадровый (профессиональный), кодек: AC3 5.1, битрейт: 384 кб/с
Аудио #2: язык: Французский, перевод: оригинал, кодек: AC3 5.1, битрейт: 384 кб/с
Субтитры: тип: внешние, формат: SRT, язык: Русский
Релиз группы: Автор рипа:
Общее
Формат : AVI
Формат/Информация : Audio Video Interleave
Профиль формата : OpenDML
Размер файла : 2,19 Гбайт
Продолжительность : 2 ч. 4 м.
Общий поток : 2509 Кбит/сек
Название фильма : Лемминг / Lemming (2005) DVDRip
Режиссёр : tise
Программа кодирования : VirtualDubModRus 1.5.10.2 (build 2542/release)
Библиотека кодирования : VirtualDubMod build 2542/release
Правообладатель : www.powertracker.org

Видео
Идентификатор : 0
Формат : MPEG-4 Visual
Профиль формата : Advanced Simple@L5
Параметр BVOP формата : 1
Параметр QPel формата : Нет
Параметр GMC формата : Без точки перехода
Параметр матрицы формата : Default (MPEG)
Идентификатор кодека : XVID
Идентификатор кодека/Подсказка : XviD
Продолжительность : 2 ч. 4 м.
Битрейт : 1722 Кбит/сек
Ширина : 704 пикселя
Высота : 368 пикселей
Соотношение сторон : 16:9
Частота кадров : 25,000 кадров/сек
Цветовое пространство : YUV
Субдискретизация насыщенности : 4:2:0
Битовая глубина : 8 бит
Тип развёртки : Прогрессивная
Метод сжатия : С потерями
Бит/(Пиксели*Кадры) : 0.266
Размер потока : 1,50 Гбайт (69%)
Библиотека кодирования : XviD 1.2.1 (UTC 2008-12-04)

Аудио #1
Идентификатор : 1
Формат : AC-3
Формат/Информация : Audio Coding 3
Расширение режима : CM (complete main)
Идентификатор кодека : 2000
Продолжительность : 2 ч. 4 м.
Вид битрейта : Постоянный
Битрейт : 384 Кбит/сек
Каналы : 6 каналов
Расположение каналов : Front: L C R, Side: L R, LFE
Частота : 48,0 КГц
Битовая глубина : 16 бит
Метод сжатия : С потерями
Размер потока : 343 Мбайт (15%)
Выравнивание : Разделение по промежуткам
Продолжительность промежутка : 40 мс. (1,00 видеокадр)
Время предзагрузки промежутка : 500 мс.

Аудио #2
Идентификатор : 2
Формат : AC-3
Формат/Информация : Audio Coding 3
Расширение режима : CM (complete main)
Идентификатор кодека : 2000
Продолжительность : 2 ч. 4 м.
Вид битрейта : Постоянный
Битрейт : 384 Кбит/сек
Каналы : 6 каналов
Расположение каналов : Front: L C R, Side: L R, LFE
Частота : 48,0 КГц
Битовая глубина : 16 бит
Метод сжатия : С потерями
Размер потока : 343 Мбайт (15%)
Выравнивание : Разделение по промежуткам
Продолжительность промежутка : 40 мс. (1,00 видеокадр)
Время предзагрузки промежутка : 500 мс.



Скачать Лемминг.Lemming.(Доминик.Молль).[2005.триллер.драма.детектив.DVDRip].[MVO]+[Оригинал]+[Sub].torrent без регистрации
Золото ЗОЛОТАЯ РАЗДАЧА! СКАЧАННОЕ НЕ ЗАСЧИТЫВАЕТСЯ! Золото
Дата: Зарегистрирован   [ Тип: внутренний ] Как тут cкачать?
MAGNET ссылка
MAGNET ссылка


Скачать .torrent

12 KB

Статус: проверено DHT
Скачан: торрент - 44 раз, раздача полностью - 7 раз
Размер: 2,19 GB
Оценка:  - (Голосов: 0)
Поблагодарили: 1
Поделиться ссылкой на эту раздачу с друзьями:
В контактеFacebookОдноклассникиTwitterLivejournalМой МирLiveinternet
 

 
Показать сообщения:    


Вы не можете начинать темы
Вы не можете отвечать на сообщения
Вы не можете редактировать свои сообщения
Вы не можете удалять свои сообщения
Вы не можете голосовать в опросах
Вы не можете прикреплять файлы к сообщениям
Вы можете скачивать файлы