Loading...
Error

Скачать Рассвет мертвецов / Dawn Of The Dead (Джордж А. Ромеро) [1978, ужасы, фантастика, BDRip-AVC] [Расширенная версия / Extended Cut] [MVO]+[VO]+[AVO]x2+[Sub]x2 торрент без регистрации

 
Статистика раздачи
Размер:  3,39 GB   |    Скачан:  52 раза
Сидов:  1  [  0 KB/s  ]  
 
Автор Сообщение

Marsianka

[] 

Информация о фильме
Название: Рассвет мертвецов
Оригинальное название: Dawn Of The Dead
Год выхода: 1978
Жанр: ужасы, фантастика
Режиссер: Джордж А. Ромеро
В ролях: Дэвид Эмджи, Кен Фори, Скотт Х. Райнигер, Гэйлен Росс, Дэвид Кроуфорд, Дэвид Эрли, Ричард Франс, Хауард Смит, Дэниэл Дитрих, Фред Бэйкер, Джеймс Э. Баффико, Род Стауффер, Джесси Дель Гре, Клэйтон МакКиннон, Джон Райс, Тед Бэнк, Патрик Макклоски, Рэнди Ковиц, Джозеф Пилато, Паскуале Буба, Том Савини, Тони Буба, Марти Шифф, Тасо Н. Ставракис, Руди Риччи, Клэйтон Хилл, Джон Эмплас, Кристина Форрест, Рой Фрамкес, Майкл Горник, Джон Харрисон, Джордж А. Ромеро, Уорнер Шук, Роберт Уильямс

О фильме: Кошмар зомби, начавшийся в фильме "Ночь живых мертвецов", продолжается. Спасшиеся от ужаса мертвых на вертолете, четверо путешественников вынуждены приземлиться на крышу супермаркета. Там они находят пищу, приют и неприятности. Многоэтажный магазин сверху донизу забит глупыми ходячими трупами. Развлекая себя отстрелом мертвецов люди и не подозревают что всего через несколько часов один из них станет тем, кого они так легко убивают — плотоядным зомби, а чуть позже в магазин нагрянет банда отморозков не делающая различия между живым и мертвым, единственным желанием которых является жажда наживы и насилия.



Страна: Италия, США
Студия: Laurel Group
Продолжительность: 02:19:42
Перевод: Профессиональный многоголосый, профессиональный одноголосый, авторский одноголосый (С. Визгунов), (А. Кашкин)

Файл
Кодек: MPEG-4 AVC
Качество: BDRip-AVC
Видео: 2000 Кбит/с, 1024х576, 23.976 кадр/с

Аудио #1: Русский (AC3, 6 ch, 448 Кбит/с) / Профессиональный многоголосый
Аудио #2: Русский (AC3, 2 ch, 192 Кбит/с) / Профессиональный одноголосый (Tycoon)
Аудио #3: Русский (AC3, 2 ch, 192 Кбит/с) / Авторский одноголосый (С. Визгунов)
Аудио #4: Русский (AC3, 2 ch, 192 Кбит/с) / Авторский одноголосый (А. Кашкин)
Аудио #5: Английский (AC3, 6 ch, 448 Кбит/с)
Субтитры: Русские, английские
Семпл
Общее
Уникальный идентификатор : 223096853031557316408991245208708810277 (0xA7D6E416F3705EC5A709237430458625)
Полное имя : F:3Films FРелизыRassvet.mertvecov.Ext.Cut.1978.x264.BDRip.AVC.MediaClub.mkv
Формат : Matroska
Версия формата : Version 4 / Version 2
Размер файла : 3,39 Гбайт
Продолжительность : 2 ч. 19 м.
Общий поток : 3469 Кбит/сек
Название фильма : -= MediaClub =- rip by Lefevr
Дата кодирования : UTC 2014-02-18 13:10:54
Программа кодирования : mkvmerge v6.6.0 ('The Edge Of The In Between') built on Dec 1 2013 17:55:00
Библиотека кодирования : libebml v1.3.0 + libmatroska v1.4.1

Видео
Идентификатор : 1
Формат : AVC
Формат/Информация : Advanced Video Codec
Профиль формата : High@L4.1
Параметр CABAC формата : Да
Параметр ReFrames формата : 9 кадров
Идентификатор кодека : V_MPEG4/ISO/AVC
Продолжительность : 2 ч. 19 м.
Битрейт : 2000 Кбит/сек
Ширина : 1024 пикселя
Высота : 576 пикселей
Соотношение сторон : 16:9
Режим частоты кадров : Постоянный
Частота кадров : 23,976 кадра/сек
Цветовое пространство : YUV
Субдискретизация насыщенности : 4:2:0
Битовая глубина : 8 бит
Тип развёртки : Прогрессивная
Бит/(Пиксели*Кадры) : 0.141
Размер потока : 1,88 Гбайт (56%)
Заголовок : Rassvet.mertvecov.Ext.Cut.1978.x264.BDRip.AVC.MediaClub
Библиотека кодирования : x264 core 130 r2273 b3065e6
Настройки программы : cabac=1 / ref=9 / deblock=1:-3:-3 / analyse=0x3:0x133 / me=umh / subme=11 / psy=1 / psy_rd=1.10:0.20 / mixed_ref=1 / me_range=32 / chroma_me=1 / trellis=2 / 8x8dct=1 / cqm=0 / deadzone=21,11 / fast_pskip=0 / chroma_qp_offset=-3 / threads=6 / lookahead_threads=1 / sliced_threads=0 / nr=0 / decimate=0 / interlaced=0 / bluray_compat=0 / constrained_intra=0 / bframes=8 / b_pyramid=2 / b_adapt=2 / b_bias=0 / direct=3 / weightb=1 / open_gop=0 / weightp=2 / keyint=240 / keyint_min=23 / scenecut=40 / intra_refresh=0 / rc=2pass / mbtree=0 / bitrate=2000 / ratetol=1.0 / qcomp=0.60 / qpmin=0 / qpmax=69 / qpstep=4 / cplxblur=20.0 / qblur=0.5 / ip_ratio=1.40 / pb_ratio=1.30 / aq=1:1.00
Язык : English
Default : Да
Forced : Нет

Аудио #1
Идентификатор : 2
Формат : AC-3
Формат/Информация : Audio Coding 3
Расширение режима : CM (complete main)
Параметр Endianness формата : Big
Идентификатор кодека : A_AC3
Продолжительность : 2 ч. 19 м.
Вид битрейта : Постоянный
Битрейт : 448 Кбит/сек
Каналы : 6 каналов
Расположение каналов : Front: L C R, Side: L R, LFE
Частота : 48,0 КГц
Битовая глубина : 16 бит
Метод сжатия : С потерями
Размер потока : 448 Мбайт (13%)
Заголовок : TRACK_01_MVO_RUS
Язык : Russian
Default : Да
Forced : Да

Аудио #2
Идентификатор : 3
Формат : AC-3
Формат/Информация : Audio Coding 3
Расширение режима : CM (complete main)
Параметр Endianness формата : Big
Идентификатор кодека : A_AC3
Продолжительность : 2 ч. 19 м.
Вид битрейта : Постоянный
Битрейт : 192 Кбит/сек
Каналы : 2 канала
Расположение каналов : Front: L R
Частота : 48,0 КГц
Битовая глубина : 16 бит
Метод сжатия : С потерями
Размер потока : 192 Мбайт (6%)
Заголовок : TRACK_02_VO_RUS_Tycoon
Язык : Russian
Default : Нет
Forced : Нет

Аудио #3
Идентификатор : 4
Формат : AC-3
Формат/Информация : Audio Coding 3
Расширение режима : CM (complete main)
Параметр Endianness формата : Big
Идентификатор кодека : A_AC3
Продолжительность : 2 ч. 19 м.
Вид битрейта : Постоянный
Битрейт : 192 Кбит/сек
Каналы : 2 канала
Расположение каналов : Front: L R
Частота : 48,0 КГц
Битовая глубина : 16 бит
Метод сжатия : С потерями
Размер потока : 192 Мбайт (6%)
Заголовок : TRACK_03_AVO_RUS_Vizgunov
Язык : Russian
Default : Нет
Forced : Нет

Аудио #4
Идентификатор : 5
Формат : AC-3
Формат/Информация : Audio Coding 3
Расширение режима : CM (complete main)
Параметр Endianness формата : Big
Идентификатор кодека : A_AC3
Продолжительность : 2 ч. 19 м.
Вид битрейта : Постоянный
Битрейт : 192 Кбит/сек
Каналы : 2 канала
Расположение каналов : Front: L R
Частота : 48,0 КГц
Битовая глубина : 16 бит
Метод сжатия : С потерями
Размер потока : 192 Мбайт (6%)
Заголовок : TRACK_04_AVO_RUS_Kashkin
Язык : Russian
Default : Нет
Forced : Нет

Аудио #5
Идентификатор : 6
Формат : AC-3
Формат/Информация : Audio Coding 3
Расширение режима : CM (complete main)
Параметр Endianness формата : Big
Идентификатор кодека : A_AC3
Продолжительность : 2 ч. 19 м.
Вид битрейта : Постоянный
Битрейт : 448 Кбит/сек
Каналы : 6 каналов
Расположение каналов : Front: L C R, Side: L R, LFE
Частота : 48,0 КГц
Битовая глубина : 16 бит
Метод сжатия : С потерями
Размер потока : 448 Мбайт (13%)
Заголовок : TRACK_05_ORIGINAL_ENG
Язык : English
Default : Нет
Forced : Нет

Текст #1
Идентификатор : 7
Формат : UTF-8
Идентификатор кодека : S_TEXT/UTF8
Идентификатор кодека/Информация : UTF-8 Plain Text
Заголовок : TEXT_01_SUB_RUS
Язык : Russian
Default : Нет
Forced : Нет

Текст #2
Идентификатор : 8
Формат : UTF-8
Идентификатор кодека : S_TEXT/UTF8
Идентификатор кодека/Информация : UTF-8 Plain Text
Заголовок : TEXT_02_SUB_ENG_SDH
Язык : English
Default : Нет
Forced : Нет

Меню
00:00:00.000 : en:Breakdown (Main Titles)
00:06:10.767 : en:Ghetto Holocaust
00:12:01.201 : en:Slaughter of the Living Dead
00:17:50.701 : en:Getting Out
00:26:02.135 : en:The Airport
00:31:39.535 : en:Running on Empty
00:32:44.469 : en:Refuge
00:37:33.170 : en:Mall of Monsters
00:43:13.837 : en:Shopping Spree
00:48:47.805 : en:Don't Open the Door
00:58:09.805 : en:Home, Hellish Home
01:02:01.773 : en:Pure Motorized Instinct
01:06:07.873 : en:Hauling Ass
01:17:17.807 : en:Guns, Glory and Gore
01:20:59.474 : en:No Backing Out
01:27:24.141 : en:Cleaning House
01:34:31.141 : en:When There's No More Room in Hell
01:40:42.141 : en:Life As Usual
01:49:26.708 : en:The Invaders
01:56:30.841 : en:Goodbye, Creeps!
02:06:23.941 : en:Feast of the Dead
02:10:33.941 : en:Friend No More
02:12:43.441 : en:Escape to Nowhere
02:17:27.608 : en:End Credits
02:19:18.075 : en:Chapter 25
x264 [info]: frame I:2522 Avg QP:16.84 size: 65623
x264 [info]: frame P:46340 Avg QP:19.99 size: 19854
x264 [info]: frame B:151742 Avg QP:21.66 size: 6630
• Сохранены и подписаны оригинальные чаптеры как на Blu-ray.
• За помощь в подготовке релиза спасибо Константину - Painter и Виталию - neni
• За постер спасибо Инне - cookies от Media-Art-Club
• За исходник спасибо undre19
Релиз от: | Автор рипа:



Скачать Рассвет.мертвецов.Dawn.Of.The.Dead.(Джордж.А.Ромеро).[1978.ужасы.фантастика.BDRip-AVC].[Расширенная.версия.Extended.Cut].[MVO]+[VO]+[AVO]x2+[Sub]x2.torrent без регистрации
Золото ЗОЛОТАЯ РАЗДАЧА! СКАЧАННОЕ НЕ ЗАСЧИТЫВАЕТСЯ! Золото
Дата: Зарегистрирован   [ Тип: внутренний ] Как тут cкачать?
MAGNET ссылка
MAGNET ссылка


Скачать .torrent

18 KB

Статус: проверено DHT
Скачан: торрент - 52 раз, раздача полностью - 9 раз
Размер: 3,39 GB
Оценка:  5 (Голосов: 1)
Поблагодарили: 2
Поделиться ссылкой на эту раздачу с друзьями:
В контактеFacebookОдноклассникиTwitterLivejournalМой МирLiveinternet
 

 
Показать сообщения:    


Вы не можете начинать темы
Вы не можете отвечать на сообщения
Вы не можете редактировать свои сообщения
Вы не можете удалять свои сообщения
Вы не можете голосовать в опросах
Вы не можете прикреплять файлы к сообщениям
Вы можете скачивать файлы