Loading...
Error

Скачать Код «Омега» / The Omega Code (Роберт Маркарелли) [1999, боевик, триллер, драма, DVDRip] [MVO]+[Оригинал]+[Sub] торрент без регистрации

 
Статистика раздачи
Размер:  745 MB   |    Скачан:  53 раза

Полного источника не было: 21 минута

 
Автор Сообщение

Marsianka

[] 

Страна: США
Производство: Code Productions, Eclipse Catering, Gener8Xion Entertainment, TBN Films

Жанр: боевик, триллер, драма
Год выпуска: 1999
Продолжительность: 01:39:18

Перевод: Профессиональный (многоголосый, закадровый)
Оригинальная аудиодорожка: английский
Cубтитры: русский

Режиссер: Роберт Маркарелли / Robert Marcarelli

В ролях:
Каспер Ван Дин (Gillen Lane), Майкл Йорк (Stone Alexander), Кэтрин Оксенберг (Cassandra Barashe,), Майкл Айронсайд (Dominic), Ян Тришка (Prophet #1), Грегори Вагровски (Prophet #2), Девон Одесса (Jennifer Lane), Уильям Хуткинс (Sir Percival Lloyd), Роберт Ито (Shimoro Lin Che), Джанет Кэрролл (Dorothy Thompson), Джордж Коу (Sen. Jack Thompson), Равиль Исянов (Rykoff)...

Описание:
Давно известно, что в Библии, в Книге Откровений, скрыты древние зашифрованные послания, предсказывающие наступление глобальных судьбоносных событий. Примеры тому — появление Гитлера, убийство Кеннеди, война в Заливе. А что, если кто — то, используя последние достижения науки, сможет расшифровать коды этих пророчеств и тем самым получит контроль над нашим будущим?

Исходник: DVD5 R5
Тип релиза: DVDRip
Контейнер: AVI

Видео: 688x368 (1,85:1), 25,000 fps, XviD ~ 912 kbps avg, 0.144 bit/pixel
Аудио: 48 kHz, MP3 2.0, 128 kbps

Раздача от:

Общее
Полное имя : Kod.Omega.1999.DVDRip-745_[New-team]_by_AVP_Studio.avi
Формат : AVI
Формат/Информация : Audio Video Interleave
Размер файла : 745 Мбайт
Продолжительность : 1 ч. 39 м.
Общий поток : 1049 Кбит/сек
Программа кодирования : VirtualDubModRus 1.5.10.2 (build 2542/release)
Библиотека кодирования : VirtualDubMod build 2542/release

Видео
Идентификатор : 0
Формат : MPEG-4 Visual
Профиль формата : Advanced Simple@L5
Параметр BVOP формата : 1
Параметр QPel формата : Нет
Параметр GMC формата : Без точки перехода
Параметр матрицы формата : Выборочная
Идентификатор кодека : XVID
Идентификатор кодека/Подсказка : XviD
Продолжительность : 1 ч. 39 м.
Битрейт : 912 Кбит/сек
Ширина : 688 пикселей
Высота : 368 пикселей
Соотношение сторон : 1,85:1
Частота кадров : 25,000 кадров/сек
Цветовое пространство : YUV
Субдискретизация насыщенности : 4:2:0
Битовая глубина : 8 бит
Тип развёртки : Прогрессивная
Метод сжатия : С потерями
Бит/(Пиксели*Кадры) : 0.144
Размер потока : 648 Мбайт (87%)
Библиотека кодирования : XviD 73

Аудио
Идентификатор : 1
Формат : MPEG Audio
Версия формата : Version 1
Профиль формата : Layer 3
Идентификатор кодека : 55
Идентификатор кодека/Подсказка : MP3
Продолжительность : 1 ч. 39 м.
Вид битрейта : Постоянный
Битрейт : 128 Кбит/сек
Каналы : 2 канала
Частота : 48,0 КГц
Метод сжатия : С потерями
Размер потока : 90,9 Мбайт (12%)
Выравнивание : Соединение по промежуткам
Продолжительность промежутка : 40 мс. (1,00 видеокадр)
Время предзагрузки промежутка : 504 мс.
Библиотека кодирования : LAME3.99r
Настройки программы : -m s -V 4 -q 2 -lowpass 17 -b 128



Скачать Код.«Омега».The.Omega.Code.(Роберт.Маркарелли).[1999.боевик.триллер.драма.DVDRip].[MVO]+[Оригинал]+[Sub].torrent без регистрации
Золото ЗОЛОТАЯ РАЗДАЧА! СКАЧАННОЕ НЕ ЗАСЧИТЫВАЕТСЯ! Золото
Дата: Зарегистрирован   [ Тип: внутренний ] Как тут cкачать?
MAGNET ссылка
MAGNET ссылка


Скачать .torrent

15 KB

Статус: проверено DHT
Скачан: торрент - 53 раз, раздача полностью - 4 раз
Размер: 745 MB
Оценка:  5 (Голосов: 1)
Поблагодарили: 2
Поделиться ссылкой на эту раздачу с друзьями:
В контактеFacebookОдноклассникиTwitterLivejournalМой МирLiveinternet
 

 
Показать сообщения:    


Вы не можете начинать темы
Вы не можете отвечать на сообщения
Вы не можете редактировать свои сообщения
Вы не можете удалять свои сообщения
Вы не можете голосовать в опросах
Вы не можете прикреплять файлы к сообщениям
Вы можете скачивать файлы