Loading...
Error

Скачать Затерянная колония / Wraiths of Roanoke (Мэтт Кодд) [2007, мистика, ужасы, исторический, HDRip] [MVO] торрент без регистрации

 
Статистика раздачи
Размер:  746 MB   |    Скачан:  59 раз
Сидов:  1  [  0 KB/s  ]  
 
Автор Сообщение

Marsianka

[] 

Информация о фильме
Название: Затерянная колония
Оригинальное название: Wraiths of Roanoke (Lost Colony)
Год выхода: 2007
Жанр: мистика, ужасы, исторический
Режиссер: Мэтт Кодд / Matt Codd
В ролях: Эдриан Пол, Фрида Шоу, Ретт Джиллз, Майкл Тех, Мари Маскаро, Алекс МакАртур, Джордж Калил, Даг Дерт, Атанас Сребрев, Христо Митцков

О фильме: В 1492 году Христофор Колумб открыл Америку. И европейцы начали осваивать новые территории. Но не повсюду их ожидал радушный прием. И вовсе не обязательно беда исходила от индейцев-аборигенов. 22 июля 1587 года 117 отважных мужчин и женщин после долгого плавания через Атлантический океан высадились на острове Роаноке, штат Вирджиния, чтобы основать здесь первое британское поселение. Колонисты построили дома и засеяли землю. Но спустя некоторое время они все исчезли без следа. И мужчины, и женщины, и дети. И никто никогда не разгадал тайну исчезнувшей колонии...



Страна: США, Болгария
Студия: American World Pictures, Rainstorm Entertainment
Продолжительность: 01:27:17
Перевод: Профессиональный (многоголосый, закадровый)

Файл
Формат: avi
Качество: HDRip (BDRip.720p)
Видео: XviD, 656x368, 25fps, 1056kbps
Аудио: MPEG Layer 3, 2ch, 48000Hz, 128kbps


General
Complete name : Zaterannaa.Kolonia.2007.P.HDRip.700.CurHaJI.avi
Format : AVI
Format/Info : Audio Video Interleave
File size : 746 MiB
Duration : 1h 27mn
Overall bit rate : 1 194 Kbps
Movie name : Zaterannaa.Kolonia.2007.P.HDRip.700.CurHaJI
Writing application : Lavf53.13.0
Writing library : VirtualDub build 35491/release

Video
ID : 0
Format : MPEG-4 Visual
Format profile : Advanced Simple@L5
Format settings, BVOP : 2
Format settings, QPel : No
Format settings, GMC : No warppoints
Format settings, Matrix : Custom
Codec ID : XVID
Codec ID/Hint : XviD
Duration : 1h 27mn
Bit rate : 1 056 Kbps
Width : 656 pixels
Height : 368 pixels
Display aspect ratio : 16:9
Frame rate : 25.000 fps
Color space : YUV
Chroma subsampling : 4:2:0
Bit depth : 8 bits
Scan type : Progressive
Compression mode : Lossy
Bits/(Pixel*Frame) : 0.175
Stream size : 660 MiB (88%)
Writing library : XviD 64

Audio
ID : 1
Format : MPEG Audio
Format version : Version 1
Format profile : Layer 3
Codec ID : 55
Codec ID/Hint : MP3
Duration : 1h 27mn
Bit rate mode : Constant
Bit rate : 128 Kbps
Channel(s) : 2 channels
Sampling rate : 48.0 KHz
Compression mode : Lossy
Stream size : 79.9 MiB (11%)
Alignment : Split accross interleaves
Interleave, duration : 40 ms (1.00 video frame)
Interleave, preload duration : 500 ms
Writing library : L3.99r
Encoding settings : -m s -V 4 -q 2 -lowpass 17 -b 128
Релиз от:



Скачать Затерянная.колония.Wraiths.of.Roanoke.(Мэтт.Кодд).[2007.мистика.ужасы.исторический.HDRip].[MVO].torrent без регистрации
Золото ЗОЛОТАЯ РАЗДАЧА! СКАЧАННОЕ НЕ ЗАСЧИТЫВАЕТСЯ! Золото
Дата: Зарегистрирован   [ Тип: внутренний ] Как тут cкачать?
MAGNET ссылка
MAGNET ссылка


Скачать .torrent

15 KB

Статус: проверено DHT
Скачан: торрент - 59 раз, раздача полностью - 27 раз
Размер: 746 MB
Оценка:  - (Голосов: 0)
Поблагодарили: 2
Поделиться ссылкой на эту раздачу с друзьями:
В контактеFacebookОдноклассникиTwitterLivejournalМой МирLiveinternet
 

 
Показать сообщения:    


Вы не можете начинать темы
Вы не можете отвечать на сообщения
Вы не можете редактировать свои сообщения
Вы не можете удалять свои сообщения
Вы не можете голосовать в опросах
Вы не можете прикреплять файлы к сообщениям
Вы можете скачивать файлы