Loading...
Error

Скачать Без иллюзий / Casa de Lava (Педру Кошта) [1994, драма, DVDRip-AVC] [MVO] торрент без регистрации

 
Статистика раздачи
Размер:  2,09 GB   |    Скачан:  43 раза
Сидов:  1  [  0 KB/s  ]  
 
Автор Сообщение

Marsianka

[] 

Информация о фильме
Название: Без иллюзий
Оригинальное название: Casa de Lava
Год выхода: 1994
Жанр: драма
Режиссер: Педру Кошта / Pedro Costa
В ролях: Инеш Медейруш, Исаак де Банколе, Эдит Скоб, Педру Эстнеш, Рауль Андраде, Криштиану Андраде Алвеш, Сандра ду Канту Брандау

О фильме:
Леао, рабочий на лиссабонской стройке, падает в обморок, а обморок оборачивается двухмесячной комой. Мариана, молодая медсестра, ухаживает за пациентом и отправляется сопровождать его в возвращении на родину, на Кабо Верде, где нет нужных медикаментов, но наверняка есть родственники Леао. Мариана пытается раскрыть прошлое неподвижного пациента, оно то становится ясным, то вновь запутывается, и заставляет её каждый день смотреть на жизнь под новым углом. Пробуждение главного героя открывает новый виток спирали.
Один из наиболее известных фильмов экспериментатора и классика португальского кино Педро Кошты. Многомерная, медленная, философская, приближенная к «взгляду в окно», лента в экзотическом антураже вытоптанной, выжженной земли бывшей португальской колонии.


Страна: Португалия, Франция, Германия
Студия: Madragoa Filmes, Gemini Films, Pandora Filmproduktion
Продолжительность: 01:45:33.360
Перевод: Профессиональный (многоголосый закадровый) студия СВ-Дубль для ТК "Культура"

Файл
Кодек: h.264
Качество: DVDRip-AVC
Видео: 672x576 (1.660) @ 956x576, 25.000 fps, AVC, ~2445 Kbps, 0.253 bits/pixel

Русский, 48.0 KHz, AC3, 2 ch, 160 Kbps
Португальский, 48.0 KHz, AC3, 2 ch, 224 Kbps
Субтитры: Английские, VobSub
Исходник R2 DVD9 от Second Run
General
Unique ID : 189357884470562731309732712839852086166 (0x8E750082778986D1A6521B723E545396)
Complete name : I:FilmsBez_illuziy.1994.DVDRip-AVC.mkv
Format : Matroska
Format version : Version 4 / Version 2
File size : 2.09 GiB
Duration : 1h 45mn
Overall bit rate : 2 831 Kbps
Encoded date : UTC 2015-12-13 11:15:52
Writing application : mkvmerge v8.6.1 ('Flying') 64bit
Writing library : libebml v1.3.3 + libmatroska v1.4.4
DURATION : 01:37:41.752000000
NUMBER_OF_FRAMES : 755
NUMBER_OF_BYTES : 1075505
_STATISTICS_WRITING_APP : mkvmerge v8.6.1 ('Flying') 64bit
_STATISTICS_WRITING_DATE_UTC : 2015-12-13 11:15:52
_STATISTICS_TAGS : BPS DURATION NUMBER_OF_FRAMES NUMBER_OF_BYTES

Video
ID : 1
Format : AVC
Format/Info : Advanced Video Codec
Format profile : High@L4.1
Format settings, CABAC : Yes
Format settings, ReFrames : 11 frames
Codec ID : V_MPEG4/ISO/AVC
Duration : 1h 45mn
Bit rate : 2 445 Kbps
Width : 672 pixels
Height : 576 pixels
Display aspect ratio : 5:3
Original display aspect ratio : 5:3
Frame rate mode : Constant
Frame rate : 25.000 fps
Color space : YUV
Chroma subsampling : 4:2:0
Bit depth : 8 bits
Scan type : Progressive
Bits/(Pixel*Frame) : 0.253
Stream size : 1.76 GiB (84%)
Writing library : x264 core 148 r2638 7599210
Encoding settings : cabac=1 / ref=11 / deblock=1:0:0 / analyse=0x3:0x133 / me=umh / subme=11 / psy=1 / psy_rd=1.10:0.15 / mixed_ref=1 / me_range=48 / chroma_me=1 / trellis=2 / 8x8dct=1 / cqm=0 / deadzone=21,11 / fast_pskip=0 / chroma_qp_offset=-3 / threads=8 / lookahead_threads=2 / sliced_threads=0 / nr=0 / decimate=0 / interlaced=0 / bluray_compat=0 / constrained_intra=0 / bframes=10 / b_pyramid=2 / b_adapt=2 / b_bias=0 / direct=3 / weightb=1 / open_gop=0 / weightp=2 / keyint=250 / keyint_min=25 / scenecut=40 / intra_refresh=0 / rc_lookahead=60 / rc=2pass / mbtree=0 / bitrate=2445 / ratetol=1.0 / qcomp=0.60 / qpmin=0 / qpmax=69 / qpstep=4 / cplxblur=20.0 / qblur=0.5 / vbv_maxrate=40000 / vbv_bufsize=50000 / nal_hrd=none / filler=0 / ip_ratio=1.40 / pb_ratio=1.30 / aq=1:1.00
Default : No
Forced : No
Color range : Limited
Matrix coefficients : BT.601

Audio #1
ID : 2
Format : AC-3
Format/Info : Audio Coding 3
Mode extension : CM (complete main)
Format settings, Endianness : Big
Codec ID : A_AC3
Duration : 1h 45mn
Bit rate mode : Constant
Bit rate : 160 Kbps
Channel(s) : 2 channels
Channel positions : Front: L R
Sampling rate : 48.0 KHz
Compression mode : Lossy
Stream size : 121 MiB (6%)
Language : Russian
Default : Yes
Forced : No

Audio #2
ID : 3
Format : AC-3
Format/Info : Audio Coding 3
Mode extension : CM (complete main)
Format settings, Endianness : Big
Codec ID : A_AC3
Duration : 1h 45mn
Bit rate mode : Constant
Bit rate : 224 Kbps
Channel(s) : 2 channels
Channel positions : Front: L R
Sampling rate : 48.0 KHz
Compression mode : Lossy
Stream size : 169 MiB (8%)
Language : Portuguese
Default : No
Forced : No

Text
ID : 4
Format : VobSub
Muxing mode : zlib
Codec ID : S_VOBSUB
Codec ID/Info : Picture based subtitle format used on DVDs
Language : English
Default : No
Forced : No

Menu
00:00:00.000 : en:Chapter 01
00:09:14.880 : en:Chapter 02
00:17:36.000 : en:Chapter 03
00:27:23.040 : en:Chapter 04
00:39:02.400 : en:Chapter 05
00:50:17.280 : en:Chapter 06
00:55:47.520 : en:Chapter 07
01:05:36.960 : en:Chapter 08
01:12:14.880 : en:Chapter 09
01:23:16.800 : en:Chapter 10
01:34:26.400 : en:Chapter 11
01:42:44.640 : en:Chapter 12
frame I:768 Avg QP:16.75 size: 58405
frame P:31070 Avg QP:19.51 size: 24072
frame B:126496 Avg QP:20.80 size: 9029
Релиз от: Temperest



Скачать Без.иллюзий.Casa.de.Lava.(Педру.Кошта).[1994.драма.DVDRip-AVC].[MVO].torrent без регистрации
Золото ЗОЛОТАЯ РАЗДАЧА! СКАЧАННОЕ НЕ ЗАСЧИТЫВАЕТСЯ! Золото
Дата: Зарегистрирован   [ Тип: внутренний ] Как тут cкачать?
MAGNET ссылка
MAGNET ссылка


Скачать .torrent

11 KB

Статус: проверено DHT
Скачан: торрент - 43 раз, раздача полностью - 6 раз
Размер: 2,09 GB
Оценка:  - (Голосов: 0)
Поблагодарили: 1
Поделиться ссылкой на эту раздачу с друзьями:
В контактеFacebookОдноклассникиTwitterLivejournalМой МирLiveinternet
 

 
Показать сообщения:    


Вы не можете начинать темы
Вы не можете отвечать на сообщения
Вы не можете редактировать свои сообщения
Вы не можете удалять свои сообщения
Вы не можете голосовать в опросах
Вы не можете прикреплять файлы к сообщениям
Вы можете скачивать файлы