Loading...
Error

Скачать Лютер / Luther (Сезон 04, серии 01 из ??) (Сэм Миллер, Брайан Кирк, Стефан Шварц) [2015, драма, детектив, HDTVRip] [DVO] (ColdFilm) торрент без регистрации

 
Статистика раздачи
Размер:  635 MB   |    Скачан:  37 раз
Сидов:  1  [  0 KB/s  ]  
 
Автор Сообщение

leon030982

[] 

Лютер / Luther


Год выхода: 2015
Жанр: драма, детектив
Выпущено: Англия, BBC
Продолжительность: 1x ~00:58:17
Перевод: Любительский (двухголосый, закадровый) [ColdFilm]

Режиссер: Сэм Миллер, Брайан Кирк, Стефан Шварц

В ролях: Идрис Эльба, Уоррен Браун, Дермот Краули, Майкл Смайли, Рут Уилсон, Пол МакГэнн, Никки Амука-Бёрд, Кармен Келли, Стивен Макинтош, Саския Ривз, Индира Варма, Эйми-Ффион Эдвардс, Кирстон Вэрэйнг, Сиенна Гиллори


Мрачная психологическая криминальная драма, рассказывающая о гениальном детективе , страдающем от собственных демонов. Он может быть таким же опасным, как и убийцы, которых он ловит.



Качество: HDTVRip
Формат: AVI
Видео кодек: XvID
Аудио кодек: MP3
Видео: XvID, 720×400, 25.000 fps, 1368 kbps avg, 0.186 bit/pixel
Аудио: 44.100 kHz, MPEG Layer 3, 2 ch, ~192.00 kbps avg [DVO]

Код:

General
Complete name                            : E:\INTERNET\Luther.S04E01.HDTVRip.ColdFilm.avi
Format                                   : AVI
Format/Info                              : Audio Video Interleave
File size                                : 635 MiB
Duration                                 : 58mn 1s
Overall bit rate                         : 1 530 Kbps
Writing application                      : VirtualDubMod 1.5.10.2 (build 2540/release)
Writing library                          : VirtualDubMod build 2540/release

Video
ID                                       : 0
Format                                   : xvid
Codec ID                                 : xvid
Duration                                 : 58mn 1s
Bit rate                                 : 1 368 Kbps
Width                                    : 720 pixels
Height                                   : 400 pixels
Display aspect ratio                     : 16:9
Frame rate                               : 25.000 fps
Bits/(Pixel*Frame)                       : 0.186
Stream size                              : 526 MiB (83%)

Audio
ID                                       : 1
Format                                   : MPEG Audio
Format version                           : Version 1
Format profile                           : Layer 3
Codec ID                                 : 55
Codec ID/Hint                            : MP3
Duration                                 : 58mn 1s
Bit rate mode                            : Constant
Bit rate                                 : 192 Kbps
Channel(s)                               : 2 channels
Sampling rate                            : 44.1 KHz
Compression mode                         : Lossy
Stream size                              : 79.7 MiB (13%)
Alignment                                : Split accross

Когда раздача ведётся путём добавления новых серий, при каждом добавлении создётся новый торрент. Чтобы начать докачку новой серии, пользователям необходимо сделать следующее:
(1) остановить скачивание,
(2) удалить старый торрент у себя из клиента (старые серии удалять не надо),
(3) скачать новый торрент и запустить его у себя в клиенте вместо старого, при этом указать клиенту путь в старую папку, куда и должно происходить скачивание новых серий.
Ваш клиент при этом должен произвести хеширование (проверку) старой папки (если не производит сам - помогите ему сделать это), и будет докачивать только те серии, которых у вас ещё нет. Старые серии при этом не удаляются, а продолжают раздаваться!
Eсли вы уже удалили старые серии, то предотвратить повторную закачку старых серий можно, отжав галочку в соответсвующих местах при запуске нового торрента. По возможности, желательно не удалять старые серии как можно дольше, чтобы релизёр не столько продолжал раздавать старые серии, а смог сконцентрироваться на новых.



Скачать Лютер.Luther.(Сезон.04.серии.01.из.??).(Сэм.Миллер.Брайан.Кирк.Стефан.Шварц).[2015.драма.детектив.HDTVRip].[DVO].(ColdFilm).torrent без регистрации
Золото ЗОЛОТАЯ РАЗДАЧА! СКАЧАННОЕ НЕ ЗАСЧИТЫВАЕТСЯ! Золото
Дата: Зарегистрирован   [ Тип: внутренний ] Как тут cкачать?
MAGNET ссылка
MAGNET ссылка


Скачать .torrent

13 KB

Статус: проверено DHT
Скачан: торрент - 37 раз, раздача полностью - 3 раз
Размер: 635 MB
Оценка:  - (Голосов: 0)
Поблагодарили: 0
Поделиться ссылкой на эту раздачу с друзьями:
В контактеFacebookОдноклассникиTwitterLivejournalМой МирLiveinternet
 

 
Показать сообщения:    


Вы не можете начинать темы
Вы не можете отвечать на сообщения
Вы не можете редактировать свои сообщения
Вы не можете удалять свои сообщения
Вы не можете голосовать в опросах
Вы не можете прикреплять файлы к сообщениям
Вы можете скачивать файлы