Loading...
Error

Скачать Американский самурай / American Samurai (Сэм Фёрстенберг) [1992, боевик, DVDRip-AVC] [DVO] торрент без регистрации

 
Статистика раздачи
Размер:  1,46 GB   |    Скачан:  58 раз
Сидов:  1  [  0 KB/s  ]  
 
Автор Сообщение

Marsianka

[] 

Информация о фильме
Название: Американский самурай (видео)
Оригинальное название: American Samurai
Год выпуска: 1992
Страна: США
Жанр: боевик
Перевод: Профессиональный (двухголосый)
Продолжительность: 01:26:07
Режиссер: Сэм Фёрстенберг
В ролях: Дэвид Брэдли (Andrew «Drew» Collins), Марк Дакаскос (Kenjiro Sanga), Валери Трапп (Janet Ward), Рекс Район (Ed Harrison), Мелисса Хеллман (Samantha), Джон Фудзиока (Tatsuya Sanga), Дуви Коэн (Stephane), Марк Уоррен (Turk in Disco / Lars), Коби Азарли (Turk in Disco), Шалом Авитан (Turk in Disco), Баруч Белкин (Hotel Clerk), Арье Москуна (Announcer)
Описание:
Малыш Эндрю Коллинз, потеряв своих родителей в результате авиакатастрофы, чудом остался жив и попадает в семью Наставника, открывшего ему тайны самурайского меча. Его названный брат Канджиро выкрадывает фамильный меч, обладающий силой предков, который поправу должен принадлежать Эндрю.
Такой позор, по самурайскому кодексу чести, можно смыть только кровью. Эндрю и его брат Канджиро, оказавшийся человеком японской мафии (якудза), должны встретиться на подпольном поединке в Стамбуле, который решит все.
Рейтинг:

MPAA: R - Лицам до 17 лет обязательно присутствие взрослого
Качество: DVDRip-AVC
Формат: MKV
Видео: AVC, 720x400 (16:9), 2236 kbps, 25 fps, 0,311 bpp
Аудио: AC3 / 2.0 / 48 kHz / 192 kbps / 16 bit
Семпл
Релиз от: Rip by White Smoke /

General
Unique ID : 205255001696712552596487383374587163715 (0x9A6AACE708A36C8A896F2CB15582F443)
Complete name : C:AMERICAN_SAMURAI.DVDRip-AVC.by.White Smoke.R.G.Resident.mkv
Format : Matroska
Format version : Version 4 / Version 2
File size : 1.46 GiB
Duration : 1h 26mn
Overall bit rate : 2 430 Kbps
Movie name : AMERICAN_SAMURAI.DVDRip-AVC.by.White Smoke.R.G.Resident.mkv
Encoded date : UTC 2015-12-14 19:55:20
Writing application : mkvmerge v6.8.0 ('Theme for Great Cities') 64bit built on Mar 2 2014 21:34:26
Writing library : libebml v1.3.0 + libmatroska v1.4.1

Video
ID : 1
Format : AVC
Format/Info : Advanced Video Codec
Format profile : High@L4.1
Format settings, CABAC : Yes
Format settings, ReFrames : 12 frames
Codec ID : V_MPEG4/ISO/AVC
Duration : 1h 26mn
Bit rate : 2 236 Kbps
Width : 720 pixels
Height : 400 pixels
Display aspect ratio : 16:9
Frame rate : 25.000 fps
Color space : YUV
Chroma subsampling : 4:2:0
Bit depth : 8 bits
Scan type : Progressive
Bits/(Pixel*Frame) : 0.311
Stream size : 1.32 GiB (90%)
Writing library : x264 core 148 r2638 7599210
Encoding settings : cabac=1 / ref=12 / deblock=1:-3:-3 / analyse=0x3:0x113 / me=umh / subme=9 / psy=1 / psy_rd=1.00:0.00 / mixed_ref=1 / me_range=32 / chroma_me=1 / trellis=1 / 8x8dct=1 / cqm=0 / deadzone=21,11 / fast_pskip=1 / chroma_qp_offset=-2 / threads=6 / lookahead_threads=1 / sliced_threads=0 / nr=0 / decimate=1 / interlaced=0 / bluray_compat=0 / constrained_intra=0 / bframes=10 / b_pyramid=2 / b_adapt=2 / b_bias=10 / direct=1 / weightb=0 / open_gop=0 / weightp=2 / keyint=250 / keyint_min=25 / scenecut=40 / intra_refresh=0 / rc_lookahead=40 / rc=2pass / mbtree=1 / bitrate=2236 / ratetol=1.0 / qcomp=0.65 / qpmin=0 / qpmax=69 / qpstep=4 / cplxblur=20.0 / qblur=0.5 / ip_ratio=1.40 / aq=1:1.00
Language : English
Default : Yes
Forced : No

Audio
ID : 2
Format : AC-3
Format/Info : Audio Coding 3
Mode extension : CM (complete main)
Codec ID : A_AC3
Duration : 1h 26mn
Bit rate mode : Constant
Bit rate : 192 Kbps
Channel(s) : 2 channels
Channel positions : Front: L R
Sampling rate : 48.0 KHz
Bit depth : 16 bits
Compression mode : Lossy
Stream size : 118 MiB (8%)
Default : Yes
Forced : No



Скачать Американский.самурай.American.Samurai.(Сэм.Фёрстенберг).[1992.боевик.DVDRip-AVC].[DVO].torrent без регистрации
Золото ЗОЛОТАЯ РАЗДАЧА! СКАЧАННОЕ НЕ ЗАСЧИТЫВАЕТСЯ! Золото
Дата: Зарегистрирован   [ Тип: внутренний ] Как тут cкачать?
MAGNET ссылка
MAGNET ссылка


Скачать .torrent

15 KB

Статус: проверено DHT
Скачан: торрент - 58 раз, раздача полностью - 11 раз
Размер: 1,46 GB
Оценка:  - (Голосов: 0)
Поблагодарили: 1
Поделиться ссылкой на эту раздачу с друзьями:
В контактеFacebookОдноклассникиTwitterLivejournalМой МирLiveinternet
 

 
Показать сообщения:    


Вы не можете начинать темы
Вы не можете отвечать на сообщения
Вы не можете редактировать свои сообщения
Вы не можете удалять свои сообщения
Вы не можете голосовать в опросах
Вы не можете прикреплять файлы к сообщениям
Вы можете скачивать файлы