Loading...
Error

Скачать Другое время / Another Period (сезон 01) (Джереми Коннер) [2015, комедия, WEB-DL] [720p] [DVO (OZZ)]+[Eng]+[Sub Rus, Eng] торрент без регистрации

 
Статистика раздачи
Размер:  6,55 GB   |    Скачан:  46 раз

Полного источника не было: 24 минуты

 
Автор Сообщение

МихаНЕзатор

[] 

Информация о фильме
Название: Другое время
Оригинальное название: Another Period
Год выхода: 2015
Жанр: комедия
Режиссер: Джереми Коннер

В ролях: Майкл Йен Блэк, Пэйджет Брюстер, Кристина Хендрикс, Наташа Леджеро, Рики Линдхоум, Армен Вайцман, Лорен Эш, Бет Довер, Бретт Гельман, Джейсон Риттер

О фильме: 1901 год, шикарное поместье в одном из городов США. Избалованные сестры Беатрис и Лилиан Белакорт живут роскошной жизнью, предаваясь всем доступным им порокам. Больше всего на свете они любят комфорт, свою красоту и семейное наследство, а также кокаиновое вино и кидаться в слуг профитролями. Семья и ближайшее окружение им под стать, а их отношения достойны отдельной мыльной оперы: отец тайно находится в сексуальном рабстве у новой служанки-экс-проститутки, мать сидит на модном морфии, мужья любят не своих жен, а друг друга, а одна из сестер — своего брата.



Страна: США
Продолжительность: ~00:22:00 серия
Перевод: Любительский (двухголосый закадровый) [Ozz]

Файл
Кодек: h.264 / AC3
Качество: WEBDL 720p
Видео: AVC, 1280x718 (16:9), 23.976 fps, 3 978 Kbps (0.181 bit/pixel)
Звук:
Аудио #1: AC-3, 48.0 KHz, 2 ch, 192 Kbps, CBR (Russian)
Аудио #2: AC-3, 48.0 KHz, 2 ch, 192 Kbps, CBR (English)
Субтитры: Russian, English

АНОНСЫ ПОПУЛЯРНЫХ РАЗДАЧ
General
Unique ID : 171183058013124741756298331017376228091 (0x80C8A861A4CCFF18927E6BDCC8A0E2FB)
Complete name : Another.Period.S01.E01.720p.WEB-DL.Ozz.mkv
Format : Matroska
Format version : Version 4 / Version 2
File size : 682 MiB
Duration : 21mn 25s
Overall bit rate : 4 450 Kbps
Encoded date : UTC 2015-10-09 11:18:11
Writing application : mkvmerge v6.3.0 ('You can't stop me!') built on Jun 28 2013 20:09:41
Writing library : libebml v1.3.0 + libmatroska v1.4.0

Video
ID : 1
Format : AVC
Format/Info : Advanced Video Codec
Format profile : High@L3.1
Format settings, CABAC : No
Format settings, ReFrames : 2 frames
Codec ID : V_MPEG4/ISO/AVC
Duration : 21mn 25s
Bit rate : 3 978 Kbps
Width : 1 280 pixels
Height : 718 pixels
Display aspect ratio : 16:9
Frame rate mode : Constant
Frame rate : 23.976 fps
Color space : YUV
Chroma subsampling : 4:2:0
Bit depth : 8 bits
Scan type : Progressive
Bits/(Pixel*Frame) : 0.181
Stream size : 609 MiB (89%)
Language : English
Default : Yes
Forced : No
Color primaries : BT.709
Transfer characteristics : BT.709
Matrix coefficients : BT.709

Audio #1
ID : 2
Format : AC-3
Format/Info : Audio Coding 3
Mode extension : CM (complete main)
Format settings, Endianness : Big
Codec ID : A_AC3
Duration : 21mn 25s
Bit rate mode : Constant
Bit rate : 192 Kbps
Channel(s) : 2 channels
Channel positions : Front: L R
Sampling rate : 48.0 KHz
Bit depth : 16 bits
Compression mode : Lossy
Delay relative to video : 12ms
Stream size : 29.4 MiB (4%)
Title : DVO Ozz-tv
Language : Russian
Default : Yes
Forced : No

Audio #2
ID : 3
Format : AC-3
Format/Info : Audio Coding 3
Mode extension : CM (complete main)
Format settings, Endianness : Big
Codec ID : A_AC3
Duration : 21mn 25s
Bit rate mode : Constant
Bit rate : 192 Kbps
Channel(s) : 2 channels
Channel positions : Front: L R
Sampling rate : 48.0 KHz
Bit depth : 16 bits
Compression mode : Lossy
Delay relative to video : 12ms
Stream size : 29.4 MiB (4%)
Language : English
Default : No
Forced : No

Text #1
ID : 4
Format : UTF-8
Codec ID : S_TEXT/UTF8
Codec ID/Info : UTF-8 Plain Text
Title : Trotteville
Language : Russian
Default : No
Forced : No

Text #2
ID : 5
Format : UTF-8
Codec ID : S_TEXT/UTF8
Codec ID/Info : UTF-8 Plain Text
Language : English
Default : No
Forced : No



Скачать Другое.время.Another.Period.(сезон.01).(Джереми.Коннер).[2015.комедия.WEB-DL].[720p].[DVO.(OZZ)]+[Eng]+[Sub.Rus.Eng].torrent без регистрации
Золото ЗОЛОТАЯ РАЗДАЧА! СКАЧАННОЕ НЕ ЗАСЧИТЫВАЕТСЯ! Золото
Дата: Зарегистрирован   [ Тип: внутренний ] Как тут cкачать?
MAGNET ссылка
MAGNET ссылка


Скачать .torrent

18 KB

Статус: проверено DHT
Скачан: торрент - 46 раз, раздача полностью - 20 раз
Размер: 6,55 GB
Оценка:  - (Голосов: 0)
Поблагодарили: 0
Поделиться ссылкой на эту раздачу с друзьями:
В контактеFacebookОдноклассникиTwitterLivejournalМой МирLiveinternet
 

 
Показать сообщения:    


Вы не можете начинать темы
Вы не можете отвечать на сообщения
Вы не можете редактировать свои сообщения
Вы не можете удалять свои сообщения
Вы не можете голосовать в опросах
Вы не можете прикреплять файлы к сообщениям
Вы можете скачивать файлы