Loading...
Error

Скачать Апачи / Apachen (Готтфрид Кольдиц) [1973, вестерн, приключения, BDRip] [Dub] торрент без регистрации

 
Статистика раздачи
Размер:  1,36 GB   |    Скачан:  59 раз
Сидов:  1  [  0 KB/s  ]  
 
Автор Сообщение

Marsianka

[] 

Информация о фильме
Название: Апачи
Оригинальное название: Apachen
Год выхода: 1973
Жанр: вестерн, приключения
Режиссер: Готтфрид Кольдиц
В ролях: Гойко Митич, Джерри Фолфф, Рольф Хоппе, Леон Нимчик, Фред Людвиг, Хартмут Бир, Милан Бели, Фред Дельмаре, Эльза Грубе-Дайстер, Томас Вайсгербер

О фильме:
Действие фильма происходит в пограничной области между США и Мексикой в 1848 году, когда Мексике пришлось уступить Америке территорию нынешних штатов Аризона, Нью-Мексико, Юта и Колорадо. Апачи племени мимбреньо в «Новой Испании» заключают с мексиканской горнопромышленной компанией договор, позволяющий мексиканцам производить разведочные работы. Однако залежи благородных металлов привлекают сюда и американского геолога Джонсона. Он зарится на эти земли и расстреливает в селении Санта-Рита индейцев из армейской пушки. Кроме того, он получает огромную премию за их скальпы. Лишь немногие из индейцев остаются в живых и скрываются, в их числе вождь Ульзана. Законы племени требуют покарать убийцу. Смогут ли они отомстить?



Выпущено: Bucaresti Film, Киностудия Дефа, Мосфильм, Германия (ГДР), Румыния, СССР
Продолжительность: 01:29:46
Перевод: Дублированный (Союзмультфильм)
Оригинальная аудио-дорожка: Нет

Файл
Кодек: XviD
Формат: AVI
Качество: BDRip [Исходник: Blu-ray [Custom] 1080i AVC DD2.0 от HDClub]
Видео: XviD, 720x304 (2.35:1), 1974 Кбит/с, 25 кадр/с
Аудио: Русский, Dolby AC3, 48000 Гц, 192 Кбит/с, 2 канала (Стерео) - DUB [Союзмультфильм]
Субтитры: Нет

General
Complete name : Apachen.1973.BDRip.avi
Format : AVI
Format/Info : Audio Video Interleave
File size : 1.36 GiB
Duration : 1h 29mn
Overall bit rate : 2 174 Kbps
Movie name : Апачи / Apachen (1973) BDRip
Writing application : VirtualDubMod 1.5.10.3 | www.virtualdub-fr.org || (build 2550/release)
Writing library : VirtualDubMod build 2550/release
Copyright : rip by ivandubskoj

Video
ID : 0
Format : MPEG-4 Visual
Format profile : Advanced Simple@L5
Format settings, BVOP : 1
Format settings, QPel : No
Format settings, GMC : No warppoints
Format settings, Matrix : Custom
Codec ID : XVID
Codec ID/Hint : XviD
Duration : 1h 29mn
Bit rate : 1 974 Kbps
Width : 720 pixels
Height : 304 pixels
Display aspect ratio : 2.35:1
Frame rate : 25.000 fps
Color space : YUV
Chroma subsampling : 4:2:0
Bit depth : 8 bits
Scan type : Progressive
Compression mode : Lossy
Bits/(Pixel*Frame) : 0.361
Stream size : 1.24 GiB (91%)
Writing library : XviD 73

Audio
ID : 1
Format : AC-3
Format/Info : Audio Coding 3
Mode extension : CM (complete main)
Codec ID : 2000
Duration : 1h 29mn
Bit rate mode : Constant
Bit rate : 192 Kbps
Channel(s) : 2 channels
Channel positions : Front: L R
Sampling rate : 48.0 KHz
Bit depth : 16 bits
Compression mode : Lossy
Stream size : 123 MiB (9%)
Alignment : Split accross interleaves
Interleave, duration : 64 ms (1.60 video frames)
Interleave, preload duration : 500 ms
Title : Russian, DUB [Союзмультфильм]
Автор рипа - ivandubskoj



Скачать Апачи.Apachen.(Готтфрид.Кольдиц).[1973.вестерн.приключения.BDRip].[Dub].torrent без регистрации
Золото ЗОЛОТАЯ РАЗДАЧА! СКАЧАННОЕ НЕ ЗАСЧИТЫВАЕТСЯ! Золото
Дата: Зарегистрирован   [ Тип: внутренний ] Как тут cкачать?
MAGNET ссылка
MAGNET ссылка


Скачать .torrent

14 KB

Статус: проверено DHT
Скачан: торрент - 59 раз, раздача полностью - 5 раз
Размер: 1,36 GB
Оценка:  - (Голосов: 0)
Поблагодарили: 0
Поделиться ссылкой на эту раздачу с друзьями:
В контактеFacebookОдноклассникиTwitterLivejournalМой МирLiveinternet
 

 
Показать сообщения:    


Вы не можете начинать темы
Вы не можете отвечать на сообщения
Вы не можете редактировать свои сообщения
Вы не можете удалять свои сообщения
Вы не можете голосовать в опросах
Вы не можете прикреплять файлы к сообщениям
Вы можете скачивать файлы