Loading...
Error

Скачать Не говори никому / Ne le dis a personne (Гийом Кане) [2006, триллер, драма, криминал, детектив, BDRip] [1080p] [Dub] торрент без регистрации

 
Статистика раздачи
Размер:  4,37 GB   |    Скачан:  150 раз
Сидов:  1  [  0 KB/s  ]  
 
Автор Сообщение

Marsianka

[] 

Информация о фильме
Название: Не говори никому
Оригинальное название: Ne le dis a personne
Год выхода: 2006
Жанр: триллер, драма, криминал, детектив
Режиссер: Гийом Кане
В ролях: Франсуа Клюзе, Мари-Жозе Крозе, Андре Дюссолье, Кристин Скотт Томас, Франсуа Берлеан, Натали Бэй, Жан Рошфор, Марина Хандз, Жиль Лелуш, Филипп Лефевр, Флоранс Томассен, Оливье Маршаль, Гийом Кане, Брижит Катийон, Самир Гесми

О фильме:
Восемь лет назад Марго Бек погибла от рук серийного убийцы. Однако после поимки маньяк признал за собой лишь восемь убийств свое отношение к смерти Марго он всячески отрицал. Но определенные улики, найденные на теле жертвы, позволили обвинить его и в убийстве Марго. Муж убитой, Александр Бек, до сих пор не может оправиться после гибели жены. Он спасается от пагубных мыслей, с головой погрузившись в свою работу, а дружба с Элен Перкинс не дает ему полностью потерять связь с миром. Но когда рядом с тем местом, где было обнаружено тело Марго, находят еще два трупа и появляются новые улики, полиция возобновляет расследование. В то же время Александр получает по электронной почте странное письмо, в котором содержится ссылка на веб-камеру и указано время, когда камера начинает работать.



Страна: Франция
Студия: Canal+ [fr], Caneo Films
Продолжительность: 02:10:56
Перевод: Профессиональный (дублированный)

Файл
Кодек: H.264
Качество: BDrip 1080p
Видео: 1920x816 (2.35:1), 24.000 fps, AVC, 4332 Kbps
Звук: AC3, 448 Kbps, 48.0 KHz, 6 ch
Субтитры: Russian , Ukrainian , English (srt)

General
Complete name : .Ne le dis a personne.2006.BDRip-F.HD.mkv
Format : Matroska
File size : 4.37 GiB
Duration : 2h 10mn
Overall bit rate : 4 776 Kbps
Encoded date : UTC 2012-05-26 12:03:52
Writing application : mkvmerge v5.4.0 ('Piper') built on Mar 10 2012 13:34:39
Writing library : libebml v1.2.3 + libmatroska v1.3.0

Video
ID : 1
Format : AVC
Format/Info : Advanced Video Codec
Format profile : High@L4.1
Format settings, CABAC : Yes
Format settings, ReFrames : 5 frames
Muxing mode : Container profile=Unknown@4.1
Codec ID : V_MPEG4/ISO/AVC
Duration : 2h 10mn
Bit rate : 4 332 Kbps
Width : 1 920 pixels
Height : 816 pixels
Display aspect ratio : 2.35:1
Frame rate : 24.000 fps
Color space : YUV
Chroma subsampling : 4:2:0
Bit depth : 8 bits
Scan type : Progressive
Bits/(Pixel*Frame) : 0.115
Stream size : 3.87 GiB (89%)
Writing library : x264 core 122 r2184 5c85e0a
Encoding settings : cabac=1 / ref=5 / deblock=1:-2:-2 / analyse=0x3:0x113 / me=umh / subme=10 / psy=1 / psy_rd=1.00:0.10 / mixed_ref=1 / me_range=48 / chroma_me=1 / trellis=2 / 8x8dct=1 / cqm=0 / deadzone=21,11 / fast_pskip=0 / chroma_qp_offset=-3 / threads=6 / sliced_threads=0 / nr=0 / decimate=1 / interlaced=0 / bluray_compat=0 / constrained_intra=0 / bframes=8 / b_pyramid=2 / b_adapt=2 / b_bias=0 / direct=3 / weightb=1 / open_gop=0 / weightp=2 / keyint=240 / keyint_min=24 / scenecut=40 / intra_refresh=0 / rc=2pass / mbtree=0 / bitrate=4332 / ratetol=1.0 / qcomp=0.70 / qpmin=0 / qpmax=69 / qpstep=4 / cplxblur=20.0 / qblur=0.5 / ip_ratio=1.40 / pb_ratio=1.30 / aq=2:0.90
Color primaries : BT.709-5, BT.1361, IEC 61966-2-4, SMPTE RP177
Transfer characteristics : BT.709-5, BT.1361
Matrix coefficients : BT.709-5, BT.1361, IEC 61966-2-4 709, SMPTE RP177

Audio
ID : 2
Format : AC-3
Format/Info : Audio Coding 3
Mode extension : CM (complete main)
Codec ID : A_AC3
Duration : 2h 10mn
Bit rate mode : Constant
Bit rate : 448 Kbps
Channel(s) : 6 channels
Channel positions : Front: L C R, Side: L R, LFE
Sampling rate : 48.0 KHz
Bit depth : 16 bits
Stream size : 420 MiB (9%)
Language : Russian

Text #1
ID : 3
Format : UTF-8
Codec ID : S_TEXT/UTF8
Codec ID/Info : UTF-8 Plain Text
Language : Russian

Text #2
ID : 4
Format : UTF-8
Codec ID : S_TEXT/UTF8
Codec ID/Info : UTF-8 Plain Text
Language : Ukrainian

Text #3
ID : 5
Format : UTF-8
Codec ID : S_TEXT/UTF8
Codec ID/Info : UTF-8 Plain Text
Релиз от:



Скачать Не.говори.никому.Ne.le.dis.a.personne.(Гийом.Кане).[2006.триллер.драма.криминал.детектив.BDRip].[1080p].[Dub].torrent без регистрации
Золото ЗОЛОТАЯ РАЗДАЧА! СКАЧАННОЕ НЕ ЗАСЧИТЫВАЕТСЯ! Золото
Дата: Зарегистрирован   [ Тип: внутренний ] Как тут cкачать?
MAGNET ссылка
MAGNET ссылка


Скачать .torrent

22 KB

Статус: проверено DHT
Скачан: торрент - 150 раз, раздача полностью - 95 раз
Размер: 4,37 GB
Оценка:  - (Голосов: 0)
Поблагодарили: 3
Поделиться ссылкой на эту раздачу с друзьями:
В контактеFacebookОдноклассникиTwitterLivejournalМой МирLiveinternet
 

 
Показать сообщения:    


Вы не можете начинать темы
Вы не можете отвечать на сообщения
Вы не можете редактировать свои сообщения
Вы не можете удалять свои сообщения
Вы не можете голосовать в опросах
Вы не можете прикреплять файлы к сообщениям
Вы можете скачивать файлы