Loading...
Error

Скачать За 10 минут до полуночи / 10 to Midnight (Дж. Ли Томпсон) [1983, боевик, триллер, драма, криминал, BDRip-AVC] [MVO]+[AVO]+[Оригинал]+[Sub] торрент без регистрации

 
Статистика раздачи
Размер:  2,58 GB   |    Скачан:  58 раз
Сидов:  1  [  0 KB/s  ]  
 
Автор Сообщение

Marsianka

[] 

За 10 минут до полуночи / 10 to Midnight (1983) BDRip
Производство: США, Cannon Group, City Films
Жанр: боевик, триллер, драма, криминал

Режиссер: Дж. Ли Томпсон
Актеры: Чарльз Бронсон, Лиза Айлбакер, Эндрю Стивенс, Джин Дэвис, Джеффри Льюис, Уилфорд Бримли, Роберт Ф. Лайонс, Берт Уильямс, Айва Лэйн, Ола Рэй

Описание:
Бронсон играет Лео Кесслера, циничного Лос-Анжелесского полицейского. Вместе с напарником, являющимся полной его противоположностью, он преследует маньяка-убийцу Уоррена Стэйси, который решил отомстить доставшему его копу. После того, как Стэйси из-за недостатка улик был освобожден из под стражи, Кесслер решил засадить его наверняка. Но составленный Кесслером план может иметь весьма неприятные последствия, ведь очередной жертвой может стать его дочь…



Релиз от: FAGOT100 (NNM-CLUB)
Продолжительность: 01:42:13
Качество видео: BDRip-AVC
Перевод: Профессиональный (многоголосый, закадровый) R5, авторский (одноголосый, закадровый) А.Михалёв
Язык субтитров: Английский
Вид субтитров: Вшитые, отключаемые

Видео: AVC, 1024x556 (16:9), 23.976 fps, 2 816 Kbps (0.206 bit/pixel)
Аудио #1: AC-3, 48.0 KHz, 2 ch, 224 Kbps, CBR (Russian) - многоголосый R5
Аудио #2: AC-3, 48.0 KHz, 2 ch, 192 Kbps, CBR (Russian) - авторский А.Михалёв
Аудио #3: AC-3, 48.0 KHz, 1 ch, 192 Kbps, CBR (English) - оригинал
Аудио #4: AC-3, 48.0 KHz, 2 ch, 192 Kbps, CBR (English) - комментарии

Формат : Matroska
Версия формата : Version 2
Размер файла : 2,58 Гбайт
Продолжительность : 1 ч. 42 м.
Общий поток : 3618 Кбит/сек
Дата кодирования : UTC 2015-12-22 15:34:37
Программа кодирования : mkvmerge v5.3.0 ('I could have danced') built on Feb 9 2012 10:38:07
Библиотека кодирования : libebml v1.2.3 + libmatroska v1.3.0
Attachment : Yes

Видео
Идентификатор : 1
Формат : AVC
Формат/Информация : Advanced Video Codec
Профиль формата : High@L4.1
Параметр CABAC формата : Да
Параметр ReFrames формата : 9 кадров
Идентификатор кодека : V_MPEG4/ISO/AVC
Продолжительность : 1 ч. 42 м.
Битрейт : 2816 Кбит/сек
Ширина : 1024 пикселя
Высота : 556 пикселей
Соотношение сторон : 1,85:1
Режим частоты кадров : Постоянный
Частота кадров : 23,976 кадра/сек
Цветовое пространство : YUV
Субдискретизация насыщенности : 4:2:0
Битовая глубина : 8 бит
Тип развёртки : Прогрессивная
Бит/(Пиксели*Кадры) : 0.206
Размер потока : 1,96 Гбайт (76%)
Библиотека кодирования : x264 core 146 r2538 121396c
Настройки программы : cabac=1 / ref=9 / deblock=1:-3:-3 / analyse=0x3:0x133 / me=umh / subme=10 / psy=1 / psy_rd=0.98:0.20 / mixed_ref=1 / me_range=32 / chroma_me=1 / trellis=2 / 8x8dct=1 / cqm=0 / deadzone=21,11 / fast_pskip=0 / chroma_qp_offset=-3 / threads=12 / lookahead_threads=2 / sliced_threads=0 / nr=0 / decimate=0 / interlaced=0 / bluray_compat=0 / constrained_intra=0 / bframes=6 / b_pyramid=2 / b_adapt=2 / b_bias=0 / direct=3 / weightb=1 / open_gop=0 / weightp=2 / keyint=240 / keyint_min=23 / scenecut=40 / intra_refresh=0 / rc=2pass / mbtree=0 / bitrate=2816 / ratetol=1.0 / qcomp=0.60 / qpmin=0 / qpmax=69 / qpstep=4 / cplxblur=20.0 / qblur=0.5 / ip_ratio=1.40 / pb_ratio=1.30 / aq=1:1.00
Default : Да
Forced : Нет

Аудио #1
Идентификатор : 2
Формат : AC-3
Формат/Информация : Audio Coding 3
Расширение режима : CM (complete main)
Параметр Endianness формата : Big
Идентификатор кодека : A_AC3
Продолжительность : 1 ч. 42 м.
Вид битрейта : Постоянный
Битрейт : 224 Кбит/сек
Каналы : 2 канала
Расположение каналов : Front: L R
Частота : 48,0 КГц
Битовая глубина : 16 бит
Метод сжатия : С потерями
Размер потока : 164 Мбайт (6%)
Заголовок : Многоголосый R5
Язык : Russian
Default : Да
Forced : Нет

Аудио #2
Идентификатор : 3
Формат : AC-3
Формат/Информация : Audio Coding 3
Расширение режима : CM (complete main)
Параметр Endianness формата : Big
Идентификатор кодека : A_AC3
Продолжительность : 1 ч. 42 м.
Вид битрейта : Постоянный
Битрейт : 192 Кбит/сек
Каналы : 2 канала
Расположение каналов : Front: L R
Частота : 48,0 КГц
Битовая глубина : 16 бит
Метод сжатия : С потерями
Размер потока : 140 Мбайт (5%)
Заголовок : Авторский А.Михалев
Язык : Russian
Default : Нет
Forced : Нет

Аудио #3
Идентификатор : 5
Формат : AC-3
Формат/Информация : Audio Coding 3
Расширение режима : CM (complete main)
Параметр Endianness формата : Big
Идентификатор кодека : A_AC3
Продолжительность : 1 ч. 42 м.
Вид битрейта : Постоянный
Битрейт : 192 Кбит/сек
Каналы : 1 канал
Расположение каналов : Front: C
Частота : 48,0 КГц
Битовая глубина : 16 бит
Метод сжатия : С потерями
Размер потока : 140 Мбайт (5%)
Заголовок : Original
Язык : English
Default : Нет
Forced : Нет

Аудио #4
Идентификатор : 6
Формат : AC-3
Формат/Информация : Audio Coding 3
Расширение режима : CM (complete main)
Параметр Endianness формата : Big
Идентификатор кодека : A_AC3
Продолжительность : 1 ч. 42 м.
Вид битрейта : Постоянный
Битрейт : 192 Кбит/сек
Каналы : 2 канала
Расположение каналов : Front: L R
Частота : 48,0 КГц
Битовая глубина : 16 бит
Метод сжатия : С потерями
Размер потока : 140 Мбайт (5%)
Заголовок : Commentary
Язык : English
Default : Нет
Forced : Нет

Текст
Идентификатор : 4
Формат : UTF-8
Идентификатор кодека : S_TEXT/UTF8
Идентификатор кодека/Информация : UTF-8 Plain Text
Язык : English
Default : Да
Forced : Нет

Меню
00:00:00.000 : :Chapter 01
00:04:53.668 : :Chapter 02
00:07:37.915 : :Chapter 03
00:12:35.212 : :Chapter 04
00:17:47.149 : :Chapter 05
00:21:03.470 : :Chapter 06
00:25:49.798 : :Chapter 07
00:29:59.589 : :Chapter 08
00:35:12.527 : :Chapter 09
00:40:15.496 : :Chapter 10
00:43:38.365 : :Chapter 11
00:47:41.900 : :Chapter 12
00:51:20.827 : :Chapter 13
00:57:16.975 : :Chapter 14
01:00:10.023 : :Chapter 15
01:06:03.793 : :Chapter 16
01:09:21.073 : :Chapter 17
01:13:57.599 : :Chapter 18
01:18:13.563 : :Chapter 19
01:22:24.522 : :Chapter 20
01:26:47.452 : :Chapter 21
01:31:41.662 : :Chapter 22
01:36:09.180 : :Chapter 23
01:40:01.286 : :Chapter 24
01:42:13.001 : :Chapter 25



Скачать За.10.минут.до.полуночи.10.to.Midnight.(Дж.Ли.Томпсон).[1983.боевик.триллер.драма.криминал.BDRip-AVC].[MVO]+[AVO]+[Оригинал]+[Sub].torrent без регистрации
Золото ЗОЛОТАЯ РАЗДАЧА! СКАЧАННОЕ НЕ ЗАСЧИТЫВАЕТСЯ! Золото
Дата: Зарегистрирован   [ Тип: внутренний ] Как тут cкачать?
MAGNET ссылка
MAGNET ссылка


Скачать .torrent

14 KB

Статус: проверено DHT
Скачан: торрент - 58 раз, раздача полностью - 2 раз
Размер: 2,58 GB
Оценка:  5 (Голосов: 1)
Поблагодарили: 1
Поделиться ссылкой на эту раздачу с друзьями:
В контактеFacebookОдноклассникиTwitterLivejournalМой МирLiveinternet
 

 
Показать сообщения:    


Вы не можете начинать темы
Вы не можете отвечать на сообщения
Вы не можете редактировать свои сообщения
Вы не можете удалять свои сообщения
Вы не можете голосовать в опросах
Вы не можете прикреплять файлы к сообщениям
Вы можете скачивать файлы