Loading...
Error

Скачать Подразделение «Т» / T-Force (Ричард Пепин) [1994, фантастика, боевик, BDRip-AVC] [MVO]+[AVO (Володарский)]+[Оригинал] торрент без регистрации

 
Статистика раздачи
Размер:  2,71 GB   |    Скачан:  51 раз

Полного источника не было: 25 минут

 
Автор Сообщение

Marsianka

[] 

Подразделение «Т»

T-Force

Страна: США
Жанр: фантастика, боевик
Год выпуска: 1994
Продолжительность: 01:41:02
Перевод: Профессиональный (многоголосый, закадровый) + Авторский (Володарский) + Оригинальный
Режиссер: Ричард Пепин / Richard Pepin
В ролях: Джек Скалия (Lt. Jack Floyd), Эван Лёри (Adam), Эрин Грэй (Mayor Pendleton), Бобби Джонстон (Cain), Дерон Макби (Zeus), Дженнифер МакДональд (Mandragora), Мартин Э. Брукс (Dr. Jonathan Gant), Вернон Уэллс (Samuel Washington), Ник ДеМауро (Sergeant Johnston), Шон Моран (Peter Deserek), Дьюк Страуд (Chief Richman), Р. Дэвид Смит (Athens)
Описание: Подразделение «Т» (от слова «terminate» - терминировать, уничтожить - терминатор) состоит из четырех киборгов. Они проникают в здание иностранного представительства, захваченное террористами. В здании находятся заложники, а в их числе и посол Великобритании.

MPAA: R - Лицам до 17 лет обязательно присутствие взрослого
Семпл
Качество: BDRip
Контейнер: MKV

Видео: AVC, 1024x576 (16:9), 3000 kbps, 23,976 fps, 0,212 bpp
Аудио №1: русский / AC3 / 2.0 / 48 kHz / 192 kbps MVO
Аудио №2: русский / AC3 / 2.0 / 48 kHz / 192 kbps AVO ( Володарский )
Аудио №3: английский / AC3 / 5.1 / 48 kHz / 448 kbps


-------------------------------------------------------------------------------------------
x264 [info]: frame I:1195 Avg QP:17.46 size: 68542
x264 [info]: frame P:29220 Avg QP:19.96 size: 27434
x264 [info]: frame B:114950 Avg QP:22.62 size: 12083
-------------------------------------------------------------------------------------------
Format : Matroska
Format version : Version 2
File size : 2.71 GiB
Duration : 1h 41mn
Overall bit rate : 3 833 Kbps
Movie name : = Подразделение «Т» / T-Force BDRip-AVC by SC Kosmos =
Encoded date : UTC 2015-12-24 08:50:14
Writing application : mkvmerge v3.3.0 ('Language') gebaut am Mar 24 2010 14:59:24
Writing library : libebml v0.8.0 + libmatroska v0.9.0
Attachment : Yes

Video
ID : 1
Format : AVC
Format/Info : Advanced Video Codec
Format profile : High@L4.1
Format settings, CABAC : Yes
Format settings, ReFrames : 9 frames
Codec ID : V_MPEG4/ISO/AVC
Duration : 1h 41mn
Bit rate : 3 000 Kbps
Width : 1 024 pixels
Height : 576 pixels
Display aspect ratio : 16:9
Frame rate : 23.976 fps
Color space : YUV
Chroma subsampling : 4:2:0
Bit depth : 8 bits
Scan type : Progressive
Bits/(Pixel*Frame) : 0.212
Stream size : 2.06 GiB (76%)
Title : Подразделение «Т» / T-Force BDRip-AVC by SC Kosmos
Writing library : x264 core 146 r2538 121396c
Encoding settings : cabac=1 / ref=9 / deblock=1:-3:-3 / analyse=0x3:0x113 / me=umh / subme=11 / psy=1 / psy_rd=1.00:0.00 / mixed_ref=1 / me_range=32 / chroma_me=1 / trellis=2 / 8x8dct=1 / cqm=0 / deadzone=21,11 / fast_pskip=0 / chroma_qp_offset=-2 / threads=12 / lookahead_threads=3 / sliced_threads=0 / nr=0 / decimate=1 / interlaced=0 / bluray_compat=0 / constrained_intra=0 / bframes=12 / b_pyramid=2 / b_adapt=2 / b_bias=0 / direct=3 / weightb=1 / open_gop=0 / weightp=2 / keyint=240 / keyint_min=23 / scenecut=40 / intra_refresh=0 / rc_lookahead=50 / rc=2pass / mbtree=0 / bitrate=3000 / ratetol=1.0 / qcomp=0.60 / qpmin=0 / qpmax=69 / qpstep=4 / cplxblur=20.0 / qblur=0.5 / vbv_maxrate=62500 / vbv_bufsize=78125 / nal_hrd=none / filler=0 / ip_ratio=1.40 / pb_ratio=1.30 / aq=1:1.00
Language : English
Default : No
Forced : No

Audio #1
ID : 2
Format : AC-3
Format/Info : Audio Coding 3
Mode extension : CM (complete main)
Codec ID : A_AC3
Duration : 1h 41mn
Bit rate mode : Constant
Bit rate : 192 Kbps
Channel(s) : 2 channels
Channel positions : Front: L R
Sampling rate : 48.0 KHz
Bit depth : 16 bits
Compression mode : Lossy
Stream size : 139 MiB (5%)
Title : MVO
Language : Russian
Default : Yes
Forced : Yes

Audio #2
ID : 3
Format : AC-3
Format/Info : Audio Coding 3
Mode extension : CM (complete main)
Codec ID : A_AC3
Duration : 1h 41mn
Bit rate mode : Constant
Bit rate : 192 Kbps
Channel(s) : 2 channels
Channel positions : Front: L R
Sampling rate : 48.0 KHz
Bit depth : 16 bits
Compression mode : Lossy
Stream size : 139 MiB (5%)
Title : AVO ( Володарский )
Language : Russian
Default : No
Forced : No

Audio #3
ID : 4
Format : AC-3
Format/Info : Audio Coding 3
Mode extension : CM (complete main)
Codec ID : A_AC3
Duration : 1h 41mn
Bit rate mode : Constant
Bit rate : 448 Kbps
Channel(s) : 6 channels
Channel positions : Front: L C R, Side: L R, LFE
Sampling rate : 48.0 KHz
Bit depth : 16 bits
Compression mode : Lossy
Stream size : 324 MiB (12%)
Language : English
Default : No
Forced : No




Скачать Подразделение.«Т».T-Force.(Ричард.Пепин).[1994.фантастика.боевик.BDRip-AVC].[MVO]+[AVO.(Володарский)]+[Оригинал].torrent без регистрации
Золото ЗОЛОТАЯ РАЗДАЧА! СКАЧАННОЕ НЕ ЗАСЧИТЫВАЕТСЯ! Золото
Дата: Зарегистрирован   [ Тип: внутренний ] Как тут cкачать?
MAGNET ссылка
MAGNET ссылка


Скачать .torrent

14 KB

Статус: проверено DHT
Скачан: торрент - 51 раз, раздача полностью - 6 раз
Размер: 2,71 GB
Оценка:  - (Голосов: 0)
Поблагодарили: 0
Поделиться ссылкой на эту раздачу с друзьями:
В контактеFacebookОдноклассникиTwitterLivejournalМой МирLiveinternet
 

 
Показать сообщения:    


Вы не можете начинать темы
Вы не можете отвечать на сообщения
Вы не можете редактировать свои сообщения
Вы не можете удалять свои сообщения
Вы не можете голосовать в опросах
Вы не можете прикреплять файлы к сообщениям
Вы можете скачивать файлы