Loading...
Error

Скачать Пещерный человек / Caveman (Карл Готтлиб) [1981, фантастика, комедия, HDTVRip] [Перевод не требуется, весь фильм идёт на «пещерном языке»] торрент без регистрации

 
Статистика раздачи
Размер:  1,46 GB   |    Скачан:  57 раз
Сидов:  1  [  0 KB/s  ]  
 
Автор Сообщение

Marsianka

[] 

Название: Пещерный человек
Оригинальное название: Caveman
Год выпуска: 1981
Жанр: фантастика, комедия
Выпущено: США, Turman-Foster Company
Режиссер: Карл Готтлиб
В ролях: Ринго Старр, Деннис Куэйд, Шелли Лонг, Джек Гилфорд, Корк Хабберт, Марк Кинг, Пако Морайта, Ивэн С. Ким, Эд Гринберг, Карл Ламбли

О фильме: Атук изгнан из племени за то, что поимел смелость полюбить подругу вождя. Но честолюбие и неуемный темперамент позволяет ему вместе с друзьями добиться всего того, о чем раньше он мог только мечтать. Однако, как это обычно и бывает, путь ко всему этому полон как опасных приключений, так и приятных новых знакомств...



Качество: HDTVRip исходник (HDTV 1080i)
Видео: XviD, 2185 Кбит/с, 720x384
Аудио: Английский, AC3, 2 ch, 192 Кбит/с
Продолжительность: 01: 27: 46
Перевод: Не требуется

* «пука» — смерть? сломанный?
* «ул» — еда
* «заг-заг» — секс
* «крака» — огонь
* «мача» — динозавр
* «бобо» — друг
* «ах» — нравиться
* «алуна» — любить
Единственный в фильме диалог на современном английском языке вставлен для комического эффекта — говорящего никто не понимает.

General
Complete name : G:Caveman 1981 HDTVRip 1.46.avi
Format : AVI
Format/Info : Audio Video Interleave
File size : 1.46 GiB
Duration : 1h 27mn
Overall bit rate : 2 387 Kbps
Writing application : VirtualDubModRus 1.5.10.2 (build 2542/release)
Writing library : VirtualDubMod build 2542/release

Video
ID : 0
Format : MPEG-4 Visual
Format profile : Advanced Simple@L5
Format settings, BVOP : 2
Format settings, QPel : No
Format settings, GMC : No warppoints
Format settings, Matrix : Default (MPEG)
Codec ID : XVID
Codec ID/Hint : XviD
Duration : 1h 27mn
Bit rate : 2 186 Kbps
Width : 720 pixels
Height : 384 pixels
Display aspect ratio : 1.85:1
Frame rate : 25.000 fps
Color space : YUV
Chroma subsampling : 4:2:0
Bit depth : 8 bits
Scan type : Progressive
Compression mode : Lossy
Bits/(Pixel*Frame) : 0.316
Stream size : 1.34 GiB (92%)
Writing library : XviD 57

Audio
ID : 1
Format : AC-3
Format/Info : Audio Coding 3
Mode extension : CM (complete main)
Format settings, Endianness : Big
Codec ID : 2000
Duration : 1h 27mn
Bit rate mode : Constant
Bit rate : 192 Kbps
Channel(s) : 2 channels
Channel positions : Front: L R
Sampling rate : 48.0 KHz
Bit depth : 16 bits
Compression mode : Lossy
Stream size : 121 MiB (8%)
Alignment : Split accross interleaves
Interleave, duration : 40 ms (1.00 video frame)
Interleave, preload duration : 500 ms
Релиз от:



Скачать Пещерный.человек.Caveman.(Карл.Готтлиб).[1981.фантастика.комедия.HDTVRip].[Перевод.не.требуется.весь.фильм.идёт.на.«пещерном.языке»].torrent без регистрации
Золото ЗОЛОТАЯ РАЗДАЧА! СКАЧАННОЕ НЕ ЗАСЧИТЫВАЕТСЯ! Золото
Дата: Зарегистрирован   [ Тип: внутренний ] Как тут cкачать?
MAGNET ссылка
MAGNET ссылка


Скачать .torrent

15 KB

Статус: проверено DHT
Скачан: торрент - 57 раз, раздача полностью - 50 раз
Размер: 1,46 GB
Оценка:  - (Голосов: 0)
Поблагодарили: 1
Поделиться ссылкой на эту раздачу с друзьями:
В контактеFacebookОдноклассникиTwitterLivejournalМой МирLiveinternet
 

 
Показать сообщения:    


Вы не можете начинать темы
Вы не можете отвечать на сообщения
Вы не можете редактировать свои сообщения
Вы не можете удалять свои сообщения
Вы не можете голосовать в опросах
Вы не можете прикреплять файлы к сообщениям
Вы можете скачивать файлы