Loading...
Error

Скачать Колония / Colony (сезон 01) (Хуан Хосе Кампанелла) [2015, драма, фантастика, WEBRip] [MVO (OMSKBIRD records)]+[Eng] торрент без регистрации

 
Статистика раздачи
Размер:  8,48 GB   |    Скачан:  67 раз
Сидов:  1  [  0 KB/s  ]  
 
Автор Сообщение

МихаНЕзатор

[] 

Информация о фильме
Название: Колония
Оригинальное название: Colony
Год выхода: 2015
Жанр: Фантастика
Режиссер: Хуан Хосе Кампанелла

В ролях: Джош Холлоуэй, Сара Уэйн Кэллис, Аэдин Минкс, Чарльз Бэйкер, Тристен Бэнкстон, Том Бейер, Хилти Бауэн, Джонни Канниццаро, Джастин Чу-Кэри, Ной Крафт, Изабелла Крамп, Купер Дж. Фридман и др.

О фильме: Действие разворачивается в недалёком будущем в Лос-Анджелесе, оккупированном злобными пришельцами. Пока захватчики не стремятся к полному уничтожению землян, но устанавливают над нами тотальный контроль. В изменившемся мире человеческая раса делится на два лагеря. Одни подчиняются и приспосабливаются жить под гнётом новой власти. Другие уходят в партизаны, чтобы сопротивляться колонистам.
В непростой ситуации оказывается главный герой, Уилл Боуман (Джош Холлоуэй), ранее служивший в ФБР.



Релиз от: skyns61

Страна: США
Продолжительность: ~ 00:49:52 серия
Перевод: Любительский (многоголосый закадровый) | OMSKBIRD records

Файл
Кодек: XviD
Качество: WEBRip
Видео: XviD, 720x400 (16:9), 23,976 fps, ~1700 kbps
Звук:
Аудио rus: MP3, 48 kHz, 2 ch, 128 kbps | OMSKBIRD records
Аудио eng: MP3, 48 kHz, 2 ch, 128 kbps | original
Субтитры: Отсутствуют

АНОНСЫ ПОПУЛЯРНЫХ РАЗДАЧ


Торрент обновлён, добавлена 10-я серия!

01. Pilot
02. О дивный новый мир - Brave New World
03. 98 секунд - 98 Seconds
04. Blind Spot
05. Geronimo
06. Yoknapatawpha
07. Broussard
08. From the Cold
09. Zero Day
10. Gateway

Релиз-группа:
Релиз: Skyns61
Перевод: Никита Коваль
Роли озвучивали: Анна Тух, Павел Ярощик, Алексей Гнеушев и Владислав Данилов
Звукорежиссер: Павел Квентов
Постер: Ксения Просветова
Монтаж, работа со звуком : Skyns61

Общее
Полное имя : G:FilmsColony.S01.400p.OmskBirdColony.S01E01.400p.WEBRip.Rus.Eng.OmskBird.avi
Формат : AVI
Формат/Информация : Audio Video Interleave
Размер файла : 705 Мбайт
Продолжительность : 49 м.
Общий поток : 1976 Кбит/сек
Программа кодирования : VirtualDubMod 1.5.10.3 (build 2550/release)
Библиотека кодирования : VirtualDubMod build 2550/release

Видео
Идентификатор : 0
Формат : MPEG-4 Visual
Профиль формата : Advanced Simple@L5
Параметр BVOP формата : 2
Параметр QPel формата : Нет
Параметр GMC формата : Без точки перехода
Параметр матрицы формата : Default (MPEG)
Идентификатор кодека : XVID
Идентификатор кодека/Подсказка : XviD
Продолжительность : 49 м.
Битрейт : 1706 Кбит/сек
Ширина : 720 пикселей
Высота : 400 пикселей
Соотношение сторон : 16:9
Частота кадров : 23,976 кадра/сек
Цветовое пространство : YUV
Субдискретизация насыщенности : 4:2:0
Битовая глубина : 8 бит
Тип развёртки : Прогрессивная
Метод сжатия : С потерями
Бит/(Пиксели*Кадры) : 0.247
Размер потока : 609 Мбайт (86%)
Библиотека кодирования : XviD 73

Аудио #1
Идентификатор : 1
Формат : MPEG Audio
Версия формата : Version 1
Профиль формата : Layer 3
Режим : Joint stereo
Расширение режима : MS Stereo
Идентификатор кодека : 55
Идентификатор кодека/Подсказка : MP3
Продолжительность : 49 м.
Вид битрейта : Постоянный
Битрейт : 128 Кбит/сек
Каналы : 2 канала
Частота : 48,0 КГц
Метод сжатия : С потерями
Размер потока : 45,7 Мбайт (6%)
Выравнивание : Соединение по промежуткам
Продолжительность промежутка : 42 мс. (1,00 видеокадр)
Время предзагрузки промежутка : 504 мс.

Аудио #2
Идентификатор : 2
Формат : MPEG Audio
Версия формата : Version 1
Профиль формата : Layer 3
Режим : Joint stereo
Расширение режима : MS Stereo
Идентификатор кодека : 55
Идентификатор кодека/Подсказка : MP3
Продолжительность : 49 м.
Вид битрейта : Постоянный
Битрейт : 128 Кбит/сек
Каналы : 2 канала
Частота : 48,0 КГц
Метод сжатия : С потерями
Размер потока : 45,7 Мбайт (6%)
Выравнивание : Соединение по промежуткам
Продолжительность промежутка : 42 мс. (1,00 видеокадр)
Время предзагрузки промежутка : 504 мс.

[color=brown]
Внимание! Раздача ведётся путём добавления новых серий; при каждом добавлении создётся новый торрент. Чтобы начать докачку новой серии, пользователям необходимо сделать следующее:
Остановить скачивание.
Удалить старый торрент у себя из клиента (старые серии удалять не надо).
Скачать новый торрент и запустить его у себя в клиенте вместо старого, при этом указать клиенту путь в старую папку куда и должно происходить скачивание новых серий.
Ваш клиент при этом должен произвести хеширование (проверку) старой папки (если не производит сам - помогите ему сделать это), и будет докачивать только те серии которых у вас ещё нет. Старые серии при этом не удаляются, а продолжают раздаваться!
Eсли вы уже удалили старые серии, то предотвратить повторную закачку старых серий можно, отжав галочку в соответсвующих местах при запуске нового торрента. По возможности, желательно не удалять старые серии как можно дольше чтобы релизёр не столько продолжал раздавать старые серии, а смог сконцентрироваться на новых.



Скачать Колония.Colony.(сезон.01).(Хуан.Хосе.Кампанелла).[2015.драма.фантастика.WEBRip].[MVO.(OMSKBIRD.records)]+[Eng].torrent без регистрации
Золото ЗОЛОТАЯ РАЗДАЧА! СКАЧАННОЕ НЕ ЗАСЧИТЫВАЕТСЯ! Золото
Дата: Зарегистрирован   [ Тип: внутренний ] Как тут cкачать?
MAGNET ссылка
MAGNET ссылка


Скачать .torrent

25 KB

Статус: проверено DHT
Скачан: торрент - 67 раз, раздача полностью - 0 раз
Размер: 8,48 GB
Оценка:  - (Голосов: 0)
Поблагодарили: 1
Поделиться ссылкой на эту раздачу с друзьями:
В контактеFacebookОдноклассникиTwitterLivejournalМой МирLiveinternet
 

 
Показать сообщения:    


Вы не можете начинать темы
Вы не можете отвечать на сообщения
Вы не можете редактировать свои сообщения
Вы не можете удалять свои сообщения
Вы не можете голосовать в опросах
Вы не можете прикреплять файлы к сообщениям
Вы можете скачивать файлы