Loading...
Error

Скачать Дальнейшие приключения Теннеси Бака / The Further Adventures of Tennessee Buck (Дэвид Кит) [1988, приключения, мелодрама, комедия, боевик, DVDRip-AVC] [AVO (П. Прямостанов)]+[Sub] торрент без регистрации

 
Статистика раздачи
Размер:  1,45 GB   |    Скачан:  69 раз
Сидов:  1  [  0 KB/s  ]  
 
Автор Сообщение

Marsianka

[] 

Дальнейшие приключения Теннеси Бака / The Further Adventures of Tennessee Buck (1988) DVDRip
Производство: Шри-Ланка, США, Sarlui / Diamant Production, Sri Lanka Location Services Ltd.
Жанр: приключения, мелодрама, комедия, боевик

Режиссер: Дэвид Кит
Актеры: Дэвид Кит, Кэти Шоуэр, Брант фон Хоффман, Сидни Лэссик, Стивен Дэвис, Силлайюр Селвараджан, Пеарл Васудэвы, Сумита Муданнаяка, Сомы Ратнаяке, Пиядаса Виекоон

Описание:
Супружеская чета, собравшаяся поохотиться в азиатских джунглях, нанимает в качестве проводника неудачливого авантюриста Бака Мэлоуна. Со временем Бак начинает подозревать, что интересы богатой парочки в этом путешествии не ограничиваются одной охотой.


Дата мировой премьеры: 29 апреля 1988

Релиз от: FAGOT100 (NNM-CLUB)
Продолжительность: 01:30:25
Качество видео: DVDRip-AVC
Перевод: Авторский (одноголосый, закадровый) П. Прямостанов
Субтитры: Английские (вшитые в видеоряд на речь аборигенов)

Видео: AVC, 720x544 (4:3), 23.976 fps, 2 102 Kbps (0.224 bit/pixel)
Аудио: AC-3, 48.0 KHz, 2 ch, 192 Kbps, CBR

Формат : Matroska
Версия формата : Version 2
Размер файла : 1,45 Гбайт
Продолжительность : 1 ч. 30 м.
Общий поток : 2296 Кбит/сек
Дата кодирования : UTC 2015-12-27 13:25:59
Программа кодирования : mkvmerge v5.3.0 ('I could have danced') built on Feb 9 2012 10:38:07
Библиотека кодирования : libebml v1.2.3 + libmatroska v1.3.0
Attachment : Yes

Видео
Идентификатор : 1
Формат : AVC
Формат/Информация : Advanced Video Codec
Профиль формата : High@L4.1
Параметр CABAC формата : Да
Параметр ReFrames формата : 8 кадров
Идентификатор кодека : V_MPEG4/ISO/AVC
Продолжительность : 1 ч. 30 м.
Битрейт : 2102 Кбит/сек
Ширина : 720 пикселей
Высота : 544 пикселя
Соотношение сторон : 4:3
Режим частоты кадров : Постоянный
Частота кадров : 23,976 кадра/сек
Цветовое пространство : YUV
Субдискретизация насыщенности : 4:2:0
Битовая глубина : 8 бит
Тип развёртки : Прогрессивная
Бит/(Пиксели*Кадры) : 0.224
Размер потока : 1,30 Гбайт (90%)
Библиотека кодирования : x264 core 146 r2538 121396c
Настройки программы : cabac=1 / ref=8 / deblock=1:-3:-3 / analyse=0x3:0x133 / me=umh / subme=10 / psy=1 / psy_rd=1.00:0.15 / mixed_ref=1 / me_range=32 / chroma_me=1 / trellis=2 / 8x8dct=1 / cqm=0 / deadzone=21,11 / fast_pskip=0 / chroma_qp_offset=-3 / threads=2 / lookahead_threads=2 / sliced_threads=0 / nr=0 / decimate=0 / interlaced=0 / bluray_compat=0 / constrained_intra=0 / bframes=6 / b_pyramid=2 / b_adapt=2 / b_bias=0 / direct=3 / weightb=1 / open_gop=0 / weightp=2 / keyint=240 / keyint_min=23 / scenecut=40 / intra_refresh=0 / rc=2pass / mbtree=0 / bitrate=2102 / ratetol=1.0 / qcomp=0.60 / qpmin=0 / qpmax=69 / qpstep=4 / cplxblur=20.0 / qblur=0.5 / ip_ratio=1.40 / pb_ratio=1.30 / aq=2:0.70
Default : Да
Forced : Нет

Аудио
Идентификатор : 2
Формат : AC-3
Формат/Информация : Audio Coding 3
Расширение режима : CM (complete main)
Параметр Endianness формата : Big
Идентификатор кодека : A_AC3
Продолжительность : 1 ч. 30 м.
Вид битрейта : Постоянный
Битрейт : 192 Кбит/сек
Каналы : 2 канала
Расположение каналов : Front: L R
Частота : 48,0 КГц
Битовая глубина : 16 бит
Метод сжатия : С потерями
Размер потока : 124 Мбайт (8%)
Default : Да
Forced : Нет



Скачать Дальнейшие.приключения.Теннеси.Бака.The.Further.Adventures.of.Tennessee.Buck.(Дэвид.Кит).[1988.приключения.мелодрама.комедия.боевик.DVDRip-AVC].[AVO.(П.Прямостанов)]+[Sub].torrent без регистрации
Золото ЗОЛОТАЯ РАЗДАЧА! СКАЧАННОЕ НЕ ЗАСЧИТЫВАЕТСЯ! Золото
Дата: Зарегистрирован   [ Тип: внутренний ] Как тут cкачать?
MAGNET ссылка
MAGNET ссылка


Скачать .torrent

15 KB

Статус: проверено DHT
Скачан: торрент - 69 раз, раздача полностью - 11 раз
Размер: 1,45 GB
Оценка:  5 (Голосов: 1)
Поблагодарили: 2
Поделиться ссылкой на эту раздачу с друзьями:
В контактеFacebookОдноклассникиTwitterLivejournalМой МирLiveinternet
 

 
Показать сообщения:    


Вы не можете начинать темы
Вы не можете отвечать на сообщения
Вы не можете редактировать свои сообщения
Вы не можете удалять свои сообщения
Вы не можете голосовать в опросах
Вы не можете прикреплять файлы к сообщениям
Вы можете скачивать файлы