Loading...
Error

Скачать Глюконавты / Tripped (Сезон 01) (Джейми Магнус Стоун ) [2015, комедия, мистика, HDTVRip] [MVO] (AlexFilm) торрент без регистрации

 
Статистика раздачи
Размер:  1,74 GB   |    Скачан:  79 раз
Сидов:  1  [  0 KB/s  ]  
 
Автор Сообщение

leon030982

[] 



Глюконавты / Tripped



Информация о фильме:
✦ Год выхода: 2015
✦ Жанр: комедия, мистика
✦ Страна: Великобритания
✦ Продолжительность: 1x ~ 00:37:00
✦ Перевод: Профессиональный (многоголосый, закадровый [AlexFilm]
✦ Субтитры: отсутствуют

✦ Режиссер: Джейми Магнус Стоун

✦ В ролях: Блейк Харрисон, Филлип Риз, Джорджина Кэмпбелл, Кеннет Коллар, Джордж Уэбстер, Крис Коулин и др.


Твой друг детства (Дэнни) неожиданно решает остепениться и завязать с травкой, выпивкой и прочим непотребством. Он женится, а ты даже не его шафер на свадьбе. Лучшее, что ты можешь придумать, это с горя расслабиться дома на диванчике с травкой и грибочками, но ни с того ни с сего из воздуха в твоей квартире возникает другой Дэнни, в доспехах и с мечом. А потом появляется еще один неизвестный мужик с мечом, который хочет тебя убить и начинается жесткое рубалово. Это либо на 48 процентов параллельные миры, либо на 52 ты слишком лихо обдолбался травкой. Так или иначе, это начало невероятных приключений.





Информация о файле:
✦ Качество: HDTVRip
✦ Формат: AVI
✦ Видео: 720x400 (1.80:1), 25 fps, XviD ~1400 kbps avg, 0.20 bit/pixel
✦ Аудио RU: 48 kHz, MPEG Layer 3, 2 ch, ~128.00 kbps avg
✦ Аудио EN: 48 kHz, MPEG Layer 3, 2 ch, ~128.00 kbps avg

Добавлена 3-4-я серия!

Цитата:

Перевод: Наталья Рыбина
Монтаж и сведение звука: Михаил Шорыгин
Роли озвучивали:
Наталья Ланц
Александр Дасевич
Михаил Суслов
Валерий Смекалов
Андрей Астров

Код:

Формат : AVI
Формат/Информация : Audio Video Interleave
Размер файла : 450 Мбайт
Продолжительность : 37 м.
Общий поток : 1673 Кбит/сек
Название фильма : Tripped 1x01 @ AlexFilm
Программа кодирования : VirtualDubMod 1.5.10.2 (build 2540/release)
Библиотека кодирования : VirtualDubMod build 2540/release

Видео
Идентификатор : 0
Формат : MPEG-4 Visual
Профиль формата : Advanced Simple@L5
Параметр BVOP формата : Нет
Параметр QPel формата : Нет
Параметр GMC формата : Без точки перехода
Параметр матрицы формата : Default (H.263)
Идентификатор кодека : XVID
Идентификатор кодека/Подсказка : XviD
Продолжительность : 37 м.
Битрейт : 1402 Кбит/сек
Ширина : 720 пикселей
Высота : 400 пикселей
Соотношение сторон : 16:9
Частота кадров : 25,000 кадров/сек
Цветовое пространство : YUV
Субдискретизация насыщенности : 4:2:0
Битовая глубина : 8 бит
Тип развёртки : Прогрессивная
Метод сжатия : С потерями
Бит/(Пиксели*Кадры) : 0.195
Размер потока : 377 Мбайт (84%)
Библиотека кодирования : XviD 73

Аудио #1
Идентификатор : 1
Формат : MPEG Audio
Версия формата : Version 1
Профиль формата : Layer 3
Режим : Joint stereo
Расширение режима : MS Stereo
Идентификатор кодека : 55
Идентификатор кодека/Подсказка : MP3
Продолжительность : 37 м.
Вид битрейта : Постоянный
Битрейт : 128 Кбит/сек
Каналы : 2 канала
Частота : 48,0 КГц
Метод сжатия : С потерями
Размер потока : 34,4 Мбайт (8%)
Выравнивание : Соединение по промежуткам
Продолжительность промежутка : 40 мс. (1,00 видеокадр)
Время предзагрузки промежутка : 504 мс.
Заголовок : Russian (AlexFilm)
Библиотека кодирования : LAME3.99r
Настройки программы : -m j -V 4 -q 3 -lowpass 18 -b 128

Аудио #2
Идентификатор : 2
Формат : MPEG Audio
Версия формата : Version 1
Профиль формата : Layer 3
Режим : Joint stereo
Расширение режима : MS Stereo
Идентификатор кодека : 55
Идентификатор кодека/Подсказка : MP3
Продолжительность : 37 м.
Вид битрейта : Постоянный
Битрейт : 128 Кбит/сек
Каналы : 2 канала
Частота : 48,0 КГц
Метод сжатия : С потерями
Размер потока : 34,4 Мбайт (8%)
Выравнивание : Соединение по промежуткам
Продолжительность промежутка : 40 мс. (1,00 видеокадр)
Время предзагрузки промежутка : 504 мс.
Заголовок : English
Библиотека кодирования : LAME3.90.3
Когда раздача ведётся путём добавления новых серий, при каждом добавлении создётся новый торрент. Чтобы начать докачку новой серии, пользователям необходимо сделать следующее:
(1) остановить скачивание,
(2) удалить старый торрент у себя из клиента (старые серии удалять не надо),
(3) скачать новый торрент и запустить его у себя в клиенте вместо старого, при этом указать клиенту путь в старую папку, куда и должно происходить скачивание новых серий.
Ваш клиент при этом должен произвести хеширование (проверку) старой папки (если не производит сам - помогите ему сделать это), и будет докачивать только те серии, которых у вас ещё нет. Старые серии при этом не удаляются, а продолжают раздаваться!
Eсли вы уже удалили старые серии, то предотвратить повторную закачку старых серий можно, отжав галочку в соответсвующих местах при запуске нового торрента. По возможности, желательно не удалять старые серии как можно дольше, чтобы релизёр не столько продолжал раздавать старые серии, а смог сконцентрироваться на новых.



Скачать Глюконавты.Tripped.(Сезон.01).(Джейми.Магнус.Стоун.).[2015.комедия.мистика.HDTVRip].[MVO].(AlexFilm).torrent без регистрации
Золото ЗОЛОТАЯ РАЗДАЧА! СКАЧАННОЕ НЕ ЗАСЧИТЫВАЕТСЯ! Золото
Дата: Зарегистрирован   [ Тип: внутренний ] Как тут cкачать?
MAGNET ссылка
MAGNET ссылка


Скачать .torrent

18 KB

Статус: проверено DHT
Скачан: торрент - 79 раз, раздача полностью - 21 раз
Размер: 1,74 GB
Оценка:  5 (Голосов: 2)
Поблагодарили: 3
Поделиться ссылкой на эту раздачу с друзьями:
В контактеFacebookОдноклассникиTwitterLivejournalМой МирLiveinternet
 

 

leon030982

[] 

ag
 

leon030982

[] 

полный сезон
 
Показать сообщения:    


Вы не можете начинать темы
Вы не можете отвечать на сообщения
Вы не можете редактировать свои сообщения
Вы не можете удалять свои сообщения
Вы не можете голосовать в опросах
Вы не можете прикреплять файлы к сообщениям
Вы можете скачивать файлы