Loading...
Error

Скачать Тецуджин 28 / Tetsujin niju-hachigo (Шин Тогаси) [2005, фантастика, фэнтези, боевик, приключения, DVDRip] [VO] торрент без регистрации

 
Статистика раздачи
Размер:  700 MB   |    Скачан:  59 раз
Сидов:  1  [  0 KB/s  ]  
 
Автор Сообщение

Marsianka

[] 

Информация о фильме
Название: Тецуджин 28 / Железный человек №28
Оригинальное название: Tetsujin niju-hachigo / Tetsujin 28
Год выхода: 2005
Жанр: фантастика, фэнтези, боевик, приключения
Режиссер: Шин Тогаси
В ролях: Хироси Абэ, Аои Ю, Акира Эмото, Масато Ибу, Соскэ Икэмацу, Теруюки Кагава, Аяко Кавахара, Наоюки Морита

О фильме:
Тринадцатилетний Сотаро Канеда находит секретное оружие времен Второй Мировой войны — робота «Тецуджин 28». Постепенно мальчик учится управлять этой гигантской машиной, и вместе с железным другом вступает в сражение с Командиром Зеро который хочет захватить Японию.

Фильм снят по сюжету популярного аниме 60-х «Gigantor»



Производство: Япония, США / Cross Media, Dentsu, Geneon Entertainment
Продолжительность: 01:53:29
Перевод: любительский (одноголосый закадровый)

Файл
Качество: DVDRip
Формат: AVI
Видео: XviD, 592x336 (16:9), 23.976 fps, 726 kbps
Аудио: русский, MP3 2.0, 48 kHz, 128 kbps
Общее
Полное имя : Tetsujin.28.2005.DVDRip.avi
Формат : AVI
Формат/Информация : Audio Video Interleave
Размер файла : 700 Мбайт
Продолжительность : 1 ч. 53 м.
Общий поток : 863 Кбит/сек
Программа кодирования : VirtualDubMod 1.5.10.1 (build 2366/release)
Библиотека кодирования : VirtualDubMod build 2366/release

Видео
Идентификатор : 0
Формат : MPEG-4 Visual
Профиль формата : Advanced Simple@L5
Параметр BVOP формата : 2
Параметр QPel формата : Нет
Параметр GMC формата : Без точки перехода
Параметр матрицы формата : Default (H.263)
Режим смешивания : Сжатый битовый поток
Идентификатор кодека : XVID
Идентификатор кодека/Подсказка : XviD
Продолжительность : 1 ч. 53 м.
Битрейт : 726 Кбит/сек
Ширина : 592 пикселя
Высота : 336 пикселей
Соотношение сторон : 16:9
Частота кадров : 23,976 кадра/сек
Цветовое пространство : YUV
Субдискретизация насыщенности : 4:2:0
Битовая глубина : 8 бит
Тип развёртки : Прогрессивная
Метод сжатия : С потерями
Бит/(Пиксели*Кадры) : 0.152
Размер потока : 589 Мбайт (84%)
Библиотека кодирования : XviD 1.2.0SMP (UTC 2006-01-08)

Аудио
Идентификатор : 1
Формат : MPEG Audio
Версия формата : Version 1
Профиль формата : Layer 3
Режим : Joint stereo
Расширение режима : MS Stereo
Идентификатор кодека : 55
Идентификатор кодека/Подсказка : MP3
Продолжительность : 1 ч. 53 м.
Вид битрейта : Постоянный
Битрейт : 128 Кбит/сек
Каналы : 2 канала
Частота : 48,0 КГц
Метод сжатия : С потерями
Размер потока : 104 Мбайт (15%)
Выравнивание : Соединение по промежуткам
Продолжительность промежутка : 42 мс. (1,00 видеокадр)
Время предзагрузки промежутка : 504 мс.
Библиотека кодирования : LAME3.97b
Настройки программы : -m j -V 4 -q 2 -lowpass 17 -b 128



Скачать Тецуджин.28.Tetsujin.niju-hachigo.(Шин.Тогаси).[2005.фантастика.фэнтези.боевик.приключения.DVDRip].[VO].torrent без регистрации
Золото ЗОЛОТАЯ РАЗДАЧА! СКАЧАННОЕ НЕ ЗАСЧИТЫВАЕТСЯ! Золото
Дата: Зарегистрирован   [ Тип: внутренний ] Как тут cкачать?
MAGNET ссылка
MAGNET ссылка


Скачать .torrent

14 KB

Статус: проверено DHT
Скачан: торрент - 59 раз, раздача полностью - 6 раз
Размер: 700 MB
Оценка:  - (Голосов: 0)
Поблагодарили: 0
Поделиться ссылкой на эту раздачу с друзьями:
В контактеFacebookОдноклассникиTwitterLivejournalМой МирLiveinternet
 

 
Показать сообщения:    


Вы не можете начинать темы
Вы не можете отвечать на сообщения
Вы не можете редактировать свои сообщения
Вы не можете удалять свои сообщения
Вы не можете голосовать в опросах
Вы не можете прикреплять файлы к сообщениям
Вы можете скачивать файлы