Loading...
Error

Скачать Зверь войны / The Beast (Кевин Рейнольдс) [1988, драма, военный, боевик, WEB-DLRip] [AVO (Е.Хрусталёв)] торрент без регистрации

 
Статистика раздачи
Размер:  1,46 GB   |    Скачан:  63 раза
Сидов:  1  [  0 KB/s  ]  
 
Автор Сообщение

Marsianka

[] 

Информация о фильме
Название: Зверь войны
Оригинальное название: The Beast
Год выхода: 1988
Жанр: драма, военный, боевик
Режиссер: Кевин Рейнольдс / Kevin Reynolds
В ролях: Джордж Зунза, Джейсон Патрик, Стивен Бауэр, Стивен Болдуин, Дон Харви, Кабир Беди, Эрик Авари, Чайм Джирафи

О фильме:
Афганистан. 1981 год. Советский танк попадает в окружение. Подразделение танка решает идти на прорыв к своим. Но за ними по пятам неотрывно идут душманы. Один из членов экипажа, которому надоела бессмысленная война, отказывается подчиниться приказу, и оказывается брошенным на верную погибель своим командиром. Чудом оставшись в живых, он решает присоединится к повстанцам...



Страна: США
Продолжительность: 01:49:47
Перевод: Авторский одноголосый |Е.Хрусталёв|

Файл
Кодек: Xvid
Качество: WEB-DLRip
Видео: 688x384, 23,976 fps, 1641 kbps
Звук: AC3, 2 ch, 256 Kbps, 48.0 khz
Общее
Полное имя : The.Beast.of.War.1988.WEB-DLRip.avi
Формат : AVI
Формат/Информация : Audio Video Interleave
Размер файла : 1,46 Гбайт
Продолжительность : 1 ч. 49 м.
Общий поток : 1907 Кбит/сек
Программа кодирования : VirtualDubMod 1.5.10.3 | www.virtualdub-fr.org || (build 2550/release)
Библиотека кодирования : VirtualDubMod build 2550/release

Видео
Идентификатор : 0
Формат : MPEG-4 Visual
Профиль формата : Advanced Simple@L5
Параметр BVOP формата : 2
Параметр QPel формата : Нет
Параметр GMC формата : Без точки перехода
Параметр матрицы формата : Выборочная
Идентификатор кодека : XVID
Идентификатор кодека/Подсказка : XviD
Продолжительность : 1 ч. 49 м.
Битрейт : 1641 Кбит/сек
Ширина : 688 пикс.
Высота : 384 пикс.
Соотношение сторон : 16:9
Частота кадров : 23,976 кадр/сек
Цветовое пространство : YUV
Подвыборка цветности : 4:2:0
Битовая глубина : 8 бит
Тип развёртки : Прогрессивная
Метод сжатия : С потерями
Бит/(Пиксели*Кадры) : 0.259
Размер потока : 1,26 Гбайт (86%)
Библиотека кодирования : XviD 73

Аудио
Идентификатор : 1
Формат : AC-3
Формат/Информация : Audio Coding 3
Расширение режима : CM (complete main)
Идентификатор кодека : 2000
Продолжительность : 1 ч. 49 м.
Вид битрейта : Постоянный
Битрейт : 256 Кбит/сек
Канал(ы) : 2 канала(ов)
Расположение каналов : Front: L R
Частота : 48,0 КГц
Битовая глубина : 16 бит
Метод сжатия : С потерями
Размер потока : 201 Мбайт (13%)
Выравнивание : Разделение по промежуткам
Продолжительность промежутка : 42 мс. (1,00 видеокадр)
Время предзагрузки промежутка : 500 ms
Релиз от: Leon-masl



Скачать Зверь.войны.The.Beast.(Кевин.Рейнольдс).[1988.драма.военный.боевик.WEB-DLRip].[AVO.(Е.Хрусталёв)].torrent без регистрации
Золото ЗОЛОТАЯ РАЗДАЧА! СКАЧАННОЕ НЕ ЗАСЧИТЫВАЕТСЯ! Золото
Дата: Зарегистрирован   [ Тип: внутренний ] Как тут cкачать?
MAGNET ссылка
MAGNET ссылка


Скачать .torrent

16 KB

Статус: проверено DHT
Скачан: торрент - 63 раз, раздача полностью - 50 раз
Размер: 1,46 GB
Оценка:  - (Голосов: 0)
Поблагодарили: 1
Поделиться ссылкой на эту раздачу с друзьями:
В контактеFacebookОдноклассникиTwitterLivejournalМой МирLiveinternet
 

 
Показать сообщения:    


Вы не можете начинать темы
Вы не можете отвечать на сообщения
Вы не можете редактировать свои сообщения
Вы не можете удалять свои сообщения
Вы не можете голосовать в опросах
Вы не можете прикреплять файлы к сообщениям
Вы можете скачивать файлы