Loading...
Error

Скачать Жизнь – это долгая спокойная река / La vie est un long fleuve tranquille (Этьен Шатилье) [1988, комедия, драма, DVDRip-AVC] [MVO]+[Sub] торрент без регистрации

 
Статистика раздачи
Размер:  1,64 GB   |    Скачан:  54 раза
Сидов:  1  [  0 KB/s  ]  
 
Автор Сообщение

Marsianka

[] 

Информация о фильме
Название: Жизнь – это долгая спокойная река
Оригинальное название: La vie est un long fleuve tranquille
Год выхода: 1988
Жанр: комедия, драма
Режиссер: Этьен Шатилье / Étienne Chatiliez
В ролях: Бенуа Мажимель, Валери Лаланд, Элен Винсент, Тара Ромер, Жером Флок, Андре Вильм, Даниель Желен, Катрин Жакоб

О фильме:
Богатая семья с ужасом обнаруживает, что их сын в результате ошибки в роддоме теперь воспитывается в семье каких-то мелких проходимцев...


Страна: Франция
Студия: Centre National de la Cinématographie (CNC), France 3 Cinéma, Investimage
Продолжительность: 01:27:37.984
Перевод: Профессиональный (многоголосый, закадровый) R5

Файл
Кодек: h.264
Качество: DVDRip-AVC Исходник R2 Artificial Eye
Видео: 648x568 (1.627) @ 924x568, 25.000 fps, AVC, ~2264 Kbps, 0.246 bits/pixel

Русский, 48.0 KHz, AC3, 2 ch, 192 Kbps
Французский, 48.0 KHz, AC3, 2 ch, 224 Kbps
Субтитры: Английские, VobSub
General
Unique ID : 238429510894990295696566926935926820921 (0xB35FDA7CBC84DBCA8B57D57255C4D039)
Complete name : I:FilmsZhizn_jeto_dolgaja_spokojnaja_reka.1988.DVDRip-AVC.mkv
Format : Matroska
Format version : Version 4 / Version 2
File size : 1.64 GiB
Duration : 1h 27mn
Overall bit rate : 2 684 Kbps
Encoded date : UTC 2015-12-27 12:31:04
Writing application : mkvmerge v8.6.1 ('Flying') 64bit
Writing library : libebml v1.3.3 + libmatroska v1.4.4
DURATION : 01:22:55.519000000
NUMBER_OF_FRAMES : 904
NUMBER_OF_BYTES : 1316480
_STATISTICS_WRITING_APP : mkvmerge v8.6.1 ('Flying') 64bit
_STATISTICS_WRITING_DATE_UTC : 2015-12-27 12:31:04
_STATISTICS_TAGS : BPS DURATION NUMBER_OF_FRAMES NUMBER_OF_BYTES

Video
ID : 1
Format : AVC
Format/Info : Advanced Video Codec
Format profile : High@L4.1
Format settings, CABAC : Yes
Format settings, ReFrames : 11 frames
Codec ID : V_MPEG4/ISO/AVC
Duration : 1h 27mn
Bit rate : 2 264 Kbps
Width : 648 pixels
Height : 568 pixels
Display aspect ratio : 16:10
Original display aspect ratio : 16:10
Frame rate mode : Constant
Frame rate : 25.000 fps
Color space : YUV
Chroma subsampling : 4:2:0
Bit depth : 8 bits
Scan type : Progressive
Bits/(Pixel*Frame) : 0.246
Stream size : 1.36 GiB (83%)
Writing library : x264 core 148 r2638 7599210
Encoding settings : cabac=1 / ref=11 / deblock=1:0:0 / analyse=0x3:0x133 / me=umh / subme=11 / psy=1 / psy_rd=1.10:0.15 / mixed_ref=1 / me_range=48 / chroma_me=1 / trellis=2 / 8x8dct=1 / cqm=0 / deadzone=21,11 / fast_pskip=0 / chroma_qp_offset=-3 / threads=8 / lookahead_threads=2 / sliced_threads=0 / nr=0 / decimate=0 / interlaced=0 / bluray_compat=0 / constrained_intra=0 / bframes=10 / b_pyramid=2 / b_adapt=2 / b_bias=0 / direct=3 / weightb=1 / open_gop=0 / weightp=2 / keyint=250 / keyint_min=25 / scenecut=40 / intra_refresh=0 / rc_lookahead=60 / rc=2pass / mbtree=0 / bitrate=2264 / ratetol=1.0 / qcomp=0.60 / qpmin=0 / qpmax=69 / qpstep=4 / cplxblur=20.0 / qblur=0.5 / vbv_maxrate=40000 / vbv_bufsize=50000 / nal_hrd=none / filler=0 / ip_ratio=1.40 / pb_ratio=1.30 / aq=1:1.00
Default : No
Forced : No
Color range : Limited
Matrix coefficients : BT.601

Audio #1
ID : 2
Format : AC-3
Format/Info : Audio Coding 3
Mode extension : CM (complete main)
Format settings, Endianness : Big
Codec ID : A_AC3
Duration : 1h 27mn
Bit rate mode : Constant
Bit rate : 192 Kbps
Channel(s) : 2 channels
Channel positions : Front: L R
Sampling rate : 48.0 KHz
Compression mode : Lossy
Stream size : 120 MiB (7%)
Language : Russian
Default : Yes
Forced : No

Audio #2
ID : 3
Format : AC-3
Format/Info : Audio Coding 3
Mode extension : CM (complete main)
Format settings, Endianness : Big
Codec ID : A_AC3
Duration : 1h 27mn
Bit rate mode : Constant
Bit rate : 224 Kbps
Channel(s) : 2 channels
Channel positions : Front: L R
Sampling rate : 48.0 KHz
Compression mode : Lossy
Stream size : 140 MiB (8%)
Language : French
Default : No
Forced : No

Text
ID : 4
Format : VobSub
Muxing mode : zlib
Codec ID : S_VOBSUB
Codec ID/Info : Picture based subtitle format used on DVDs
Language : English
Default : No
Forced : No

Menu
00:00:00.000 : en:Chapter 01
00:07:17.320 : en:Chapter 02
00:15:19.880 : en:Chapter 03
00:23:06.320 : en:Chapter 04
00:31:59.320 : en:Chapter 05
00:39:30.160 : en:Chapter 06
00:48:19.520 : en:Chapter 07
00:54:20.920 : en:Chapter 08
01:01:58.000 : en:Chapter 09
01:09:47.040 : en:Chapter 10
01:16:46.160 : en:Chapter 11
01:24:37.280 : en:Chapter 12
frame I:783 Avg QP:17.05 size: 60465
frame P:25507 Avg QP:19.65 size: 24851
frame B:105159 Avg QP:21.50 size: 7671
Релиз от: Temperest



Скачать Жизнь.–.это.долгая.спокойная.река.La.vie.est.un.long.fleuve.tranquille.(Этьен.Шатилье).[1988.комедия.драма.DVDRip-AVC].[MVO]+[Sub].torrent без регистрации
Золото ЗОЛОТАЯ РАЗДАЧА! СКАЧАННОЕ НЕ ЗАСЧИТЫВАЕТСЯ! Золото
Дата: Зарегистрирован   [ Тип: внутренний ] Как тут cкачать?
MAGNET ссылка
MAGNET ссылка


Скачать .torrent

17 KB

Статус: проверено DHT
Скачан: торрент - 54 раз, раздача полностью - 0 раз
Размер: 1,64 GB
Оценка:  - (Голосов: 0)
Поблагодарили: 1
Поделиться ссылкой на эту раздачу с друзьями:
В контактеFacebookОдноклассникиTwitterLivejournalМой МирLiveinternet
 

 
Показать сообщения:    


Вы не можете начинать темы
Вы не можете отвечать на сообщения
Вы не можете редактировать свои сообщения
Вы не можете удалять свои сообщения
Вы не можете голосовать в опросах
Вы не можете прикреплять файлы к сообщениям
Вы можете скачивать файлы