Loading...
Error

Скачать Ключ от всех дверей / The Skeleton Key (Иэн Софтли) [2005, ужасы, триллер, драма, детектив, BDRip-AVC] [Dub]+[DVO] торрент без регистрации

 
Статистика раздачи
Размер:  2,18 GB   |    Скачан:  217 раз
Сидов:  1  [  0 KB/s  ]  
 
Автор Сообщение

Marsianka

[] 

Ключ от всех дверей / The Skeleton Key (2005) BDRip-AVC от PowerTracker

Жанр: ужасы, триллер, драма, детектив
Страна: США , Германия
Режиссер: Иэн Софтли
В ролях: Кейт Хадсон, Джина Роулэндс, Джон Харт, Питер Сарсгаард, Джой Брайант, Максин Барнетт, Fahnlohnee R. Harris, Marion Zinser, Денин Тайлер, Энн Далримпл, Трула М. Маркус, Tonya Staten, Thomas Uskali, Джен Эпгар, Форрест Лэндис, Джэми Ли Рэдмон, Рональд МакКолл, Джерил Прескотт, Исаак Де Банколе, Криста Торн, Lakrishi Kindred

Сюжет фильма: 25-летняя Кэролайн Эллис устраивается работать сиделкой к пожилому инвалиду Бену Деверо, владельцу огромного особняка неподалеку от Луизианы. Его жена Вайолет вручает девушке универсальный ключ от всех дверей в доме.

Однажды Кэролайн обнаруживает секретную комнату, расположенную на чердаке с массой мистических предметов. Хозяйка утверждает, что вещи принадлежат бывшим владельцам, которые занимались черной магией. Вскоре Кэролайн становится свидетельницей довольно странных и необъяснимых событий и решает, во что бы то ни стало, разгадать секрет таинственной комнаты


Мировая премьера: 29 июля 2005
Российская премьера: 18 августа 2005, &laquoUIP»



Продолжительность: 01:43:57
Качество видео: BDRip-AVC
Видео: кодек: x264, размер кадра: 1024x436, битрейт: 1909 кб/с, bit/pixel: 0.178
Аудио #1: язык: Русский , перевод: дублированный (дубляж), кодек: AC3 5.1, битрейт: 448.00 кб/с
Аудио #2: язык: Русский , перевод: профессиональный двухголосый закадровый, кодек: AC3 5.1, битрейт: 448.00 кб/с
Аудио #3: язык: Английский , перевод: оригинал, кодек: AC3 2.0, битрейт: 192.00 кб/с

&
Общее
Уникальный идентификатор : 230847583699239847018535178880060231194 (0xADABA09D85638B059DD687BCFCB00E1A)
Полное имя : D:РаздачиThe Skeleton Key.2005.BDRip-AVC.PT.mkv
Формат : Matroska
Версия формата : Version 2
Размер файла : 2,18 Гбайт
Продолжительность : 1 ч. 43 м.
Общий поток : 2998 Кбит/сек
Название фильма : Ключ от всех дверей / The Skeleton Key (2005) BDRip-AVC rip by rulya74
Дата кодирования : UTC 2012-05-26 08:26:04
Программа кодирования : mkvmerge v5.2.1 ('A Far Off Place') built on Jan 2 2012 23:21:10
Библиотека кодирования : libebml v1.2.3 + libmatroska v1.3.0

Видео
Идентификатор : 1
Формат : AVC
Формат/Информация : Advanced Video Codec
Профиль формата : High@L4.1
Параметр CABAC формата : Да
Параметр ReFrames формата : 15 кадров
Идентификатор кодека : V_MPEG4/ISO/AVC
Продолжительность : 1 ч. 43 м.
Битрейт : 1909 Кбит/сек
Ширина : 1024 пикселя
Высота : 436 пикселей
Соотношение сторон : 2,35:1
Частота кадров : 23,976 кадра/сек
Цветовое пространство : YUV
Субдискретизация насыщенности : 4:2:0
Битовая глубина : 8 бит
Тип развёртки : Прогрессивная
Бит/(Пиксели*Кадры) : 0.178
Размер потока : 1,34 Гбайт (62%)
Библиотека кодирования : x264 core 120 r2164 da19765
Настройки программы : cabac=1 / ref=15 / deblock=1:-3:-3 / analyse=0x3:0x113 / me=umh / subme=9 / psy=1 / psy_rd=1.00:0.00 / mixed_ref=1 / me_range=32 / chroma_me=1 / trellis=2 / 8x8dct=1 / cqm=0 / deadzone=21,11 / fast_pskip=0 / chroma_qp_offset=-2 / threads=12 / sliced_threads=0 / nr=0 / decimate=1 / interlaced=0 / bluray_compat=0 / constrained_intra=0 / bframes=13 / b_pyramid=2 / b_adapt=2 / b_bias=0 / direct=3 / weightb=1 / open_gop=0 / weightp=2 / keyint=240 / keyint_min=22 / scenecut=40 / intra_refresh=0 / rc=2pass / mbtree=0 / bitrate=1909 / ratetol=1.0 / qcomp=0.60 / qpmin=10 / qpmax=51 / qpstep=4 / cplxblur=20.0 / qblur=0.5 / ip_ratio=1.40 / pb_ratio=1.30 / aq=1:1.00
Язык : English
Default : Да
Forced : Нет

Аудио #1
Идентификатор : 2
Формат : AC-3
Формат/Информация : Audio Coding 3
Расширение режима : CM (complete main)
Идентификатор кодека : A_AC3
Продолжительность : 1 ч. 43 м.
Вид битрейта : Постоянный
Битрейт : 448 Кбит/сек
Каналы : 6 каналов
Расположение каналов : Front: L C R, Side: L R, LFE
Частота : 48,0 КГц
Битовая глубина : 16 бит
Метод сжатия : С потерями
Размер потока : 333 Мбайт (15%)
Заголовок : Дубляж
Язык : Russian
Default : Да
Forced : Нет

Аудио #2
Идентификатор : 3
Формат : AC-3
Формат/Информация : Audio Coding 3
Расширение режима : CM (complete main)
Идентификатор кодека : A_AC3
Продолжительность : 1 ч. 43 м.
Вид битрейта : Постоянный
Битрейт : 448 Кбит/сек
Каналы : 6 каналов
Расположение каналов : Front: L C R, Side: L R, LFE
Частота : 48,0 КГц
Битовая глубина : 16 бит
Метод сжатия : С потерями
Размер потока : 333 Мбайт (15%)
Заголовок : Двухголосый
Язык : Russian
Default : Нет
Forced : Нет

Аудио #3
Идентификатор : 4
Формат : AC-3
Формат/Информация : Audio Coding 3
Расширение режима : CM (complete main)
Идентификатор кодека : A_AC3
Продолжительность : 1 ч. 43 м.
Вид битрейта : Постоянный
Битрейт : 192 Кбит/сек
Каналы : 2 канала
Расположение каналов : Front: L R
Частота : 48,0 КГц
Битовая глубина : 16 бит
Метод сжатия : С потерями
Размер потока : 143 Мбайт (6%)
Заголовок : Оригинал
Язык : English
Default : Нет
Forced : Нет



Скачать Ключ.от.всех.дверей.The.Skeleton.Key.(Иэн.Софтли).[2005.ужасы.триллер.драма.детектив.BDRip-AVC].[Dub]+[DVO].torrent без регистрации
Золото ЗОЛОТАЯ РАЗДАЧА! СКАЧАННОЕ НЕ ЗАСЧИТЫВАЕТСЯ! Золото
Дата: Зарегистрирован   [ Тип: внутренний ] Как тут cкачать?
MAGNET ссылка
MAGNET ссылка


Скачать .torrent

11 KB

Статус: проверено DHT
Скачан: торрент - 217 раз, раздача полностью - 677 раз
Размер: 2,18 GB
Оценка:  5 (Голосов: 2)
Поблагодарили: 6
Поделиться ссылкой на эту раздачу с друзьями:
В контактеFacebookОдноклассникиTwitterLivejournalМой МирLiveinternet
 

 
Показать сообщения:    


Вы не можете начинать темы
Вы не можете отвечать на сообщения
Вы не можете редактировать свои сообщения
Вы не можете удалять свои сообщения
Вы не можете голосовать в опросах
Вы не можете прикреплять файлы к сообщениям
Вы можете скачивать файлы