Loading...
Error

Скачать Дневной дозор (Тимур Бекмамбетов) [2005, фэнтези, боевик, триллер, BDRip-AVC (60 fps) торрент без регистрации

 
Статистика раздачи
Размер:  3,95 GB   |    Скачан:  102 раза
Сидов:  16  [  0 KB/s  ]  
 
Автор Сообщение

МихаНЕзатор

[] 

Название: Дневной дозор
Год выпуска: 2005
Страна: Россия
Жанр: фэнтези, боевик, триллер
Продолжительность: 02:25:48
Перевод: Оригинальный
Субтитры: русские (Форсированные)
Режиссер: Тимур Бекмамбетов

В ролях: Константин Хабенский (Антон), Мария Порошина (Светлана), Владимир Меньшов (Гессер), Галина Тюнина (Ольга), Виктор Вержбицкий (Завулон), Жанна Фриске (Алиса), Дмитрий Мартынов (Егор), Валерий Золотухин (отец Кости), Алексей Чадов (Костя), Нуржуман Ихтымбаев (Зоар), Алексей Маклаков (Семен), Александр Самойленко (Медведь)

Описание:
Ночью в подъезде своего дома убита молодая женщина. На теле не обнаружено никаких следов насилия... Зыбкое равновесие между Светлыми и Темными нарушено. И чаша весов склоняется в сторону Темных. Но убитая - Темная иная, а значит подозрение падает на Светлых.
Гессер срочно собирает команду: обвинение в убийстве - серьезная проблема. Он обязан реагировать. И, прежде всего, понять кто где был и чем занимался в указанное Темными время. Выясняется, что алиби отсутствует только у Городецкого...


MPAA: R - Лицам до 17 лет обязательно присутствие взрослого

Качество: BDRip-AVC 60fps
Формат: MKV
Видео: AVC, 1024x432 (2.35:1), 3230 kbps, 59,940 fps, 0,122 bpp
Аудио: русский / AC3 / 5.1 / 48 kHz / 640 kbps / 16 bit
Навигация по главам: есть

АНОНСЫ ПОПУЛЯРНЫХ РАЗДАЧ

General
Unique ID : 174050884866439362721144377449212174396 (0x82F0FB2971B1CE75B4F5E38E93C2603C)
Format : Matroska
Format version : Version 4 / Version 2
File size : 3.95 GiB
Duration : 2h 25mn
Overall bit rate : 3 876 Kbps
Movie name : Tiberiumsun69
Encoded date : UTC 2015-12-31 06:46:48
Writing application : mkvmerge v8.3.0 ('Over the Horizon') 64bit
Writing library : libebml v1.3.1 + libmatroska v1.4.2
Attachment : Yes

Video
ID : 1
Format : AVC
Format/Info : Advanced Video Codec
Format profile : High@L4.1
Format settings, CABAC : Yes
Format settings, ReFrames : 4 frames
Codec ID : V_MPEG4/ISO/AVC
Duration : 2h 25mn
Bit rate : 3 230 Kbps
Width : 1 024 pixels
Height : 432 pixels
Display aspect ratio : 2.35:1
Frame rate : 59.940 fps
Color space : YUV
Chroma subsampling : 4:2:0
Bit depth : 8 bits
Scan type : Progressive
Bits/(Pixel*Frame) : 0.122
Stream size : 3.22 GiB (81%)
Title : Tiberiumsun69
Writing library : x264 core 146 r2538 121396c
Encoding settings : cabac=1 / ref=3 / deblock=1:0:0 / analyse=0x3:0x113 / me=umh / subme=11 / psy=1 / psy_rd=1.00:0.10 / mixed_ref=1 / me_range=32 / chroma_me=1 / trellis=2 / 8x8dct=1 / cqm=0 / deadzone=21,11 / fast_pskip=0 / chroma_qp_offset=-3 / threads=12 / lookahead_threads=3 / sliced_threads=0 / nr=0 / decimate=1 / interlaced=0 / bluray_compat=0 / constrained_intra=0 / bframes=16 / b_pyramid=2 / b_adapt=2 / b_bias=0 / direct=3 / weightb=1 / open_gop=0 / weightp=2 / keyint=250 / keyint_min=25 / scenecut=40 / intra_refresh=0 / rc_lookahead=40 / rc=2pass / mbtree=0 / bitrate=3230 / ratetol=1.0 / qcomp=0.60 / qpmin=0 / qpmax=69 / qpstep=4 / cplxblur=20.0 / qblur=0.5 / vbv_maxrate=14000 / vbv_bufsize=14000 / nal_hrd=none / filler=0 / ip_ratio=1.40 / pb_ratio=1.30 / aq=1:1.00
Language : English
Default : Yes
Forced : No

Audio
ID : 2
Format : AC-3
Format/Info : Audio Coding 3
Mode extension : CM (complete main)
Codec ID : A_AC3
Duration : 2h 25mn
Bit rate mode : Constant
Bit rate : 640 Kbps
Channel(s) : 6 channels
Channel positions : Front: L C R, Side: L R, LFE
Sampling rate : 48.0 KHz
Bit depth : 16 bits
Compression mode : Lossy
Stream size : 667 MiB (17%)
Title : Оригинал
Language : Russian
Default : Yes
Forced : No

Text
ID : 3
Format : UTF-8
Codec ID : S_TEXT/UTF8
Codec ID/Info : UTF-8 Plain Text
Title : Форсированные
Language : Russian
Default : Yes
Forced : No

Menu
00:00:00.000 : en:Chapter 1
00:05:48.139 : en:Chapter 2
00:08:30.218 : en:Chapter 3
00:12:35.838 : en:Chapter 4
00:17:00.352 : en:Chapter 5
00:20:30.270 : en:Chapter 6
00:23:24.319 : en:Chapter 7
00:26:59.200 : en:Chapter 8
00:32:45.797 : en:Chapter 9
00:35:15.530 : en:Chapter 10
00:38:31.976 : en:Chapter 11
00:40:52.450 : en:Chapter 12
00:45:38.068 : en:Chapter 13
00:49:48.777 : en:Chapter 14
00:54:10.622 : en:Chapter 15
00:57:15.849 : en:Chapter 16
01:00:01.556 : en:Chapter 17
01:01:27.141 : en:Chapter 18
01:05:13.576 : en:Chapter 19
01:06:54.260 : en:Chapter 20
01:08:56.715 : en:Chapter 21
01:13:09.551 : en:Chapter 22
01:16:12.025 : en:Chapter 23
01:20:04.591 : en:Chapter 24
01:22:50.173 : en:Chapter 25
01:28:49.824 : en:Chapter 26
01:30:42.770 : en:Chapter 27
01:34:49.475 : en:Chapter 28
01:39:45.813 : en:Chapter 29
01:45:16.476 : en:Chapter 30
01:46:56.326 : en:Chapter 31
01:50:32.834 : en:Chapter 32
01:52:12.934 : en:Chapter 33
01:54:37.120 : en:Chapter 34
01:57:41.804 : en:Chapter 35
02:01:07.009 : en:Chapter 36
02:08:46.969 : en:Chapter 37
02:10:28.862 : en:Chapter 38
02:13:10.065 : en:Chapter 39
02:17:02.130 : en:Chapter 40

Просьба к переливающим на другие сайты, в оформлении указывайте пожалуйста авторство группы



Скачать Дневной.дозор.(Тимур.Бекмамбетов).[2005.фэнтези.боевик.триллер.BDRip-AVC.(60.fps).torrent без регистрации
Золото ЗОЛОТАЯ РАЗДАЧА! СКАЧАННОЕ НЕ ЗАСЧИТЫВАЕТСЯ! Золото
Дата: Зарегистрирован   [ Тип: внешний ] Как тут cкачать?
MAGNET ссылка
MAGNET ссылка


Скачать .torrent

21 KB

Статус: проверено DHT
Скачан: торрент - 102 раз, раздача полностью - 46 раз
Размер: 3,95 GB
Оценка:  5 (Голосов: 1)
Поблагодарили: 4
Поделиться ссылкой на эту раздачу с друзьями:
В контактеFacebookОдноклассникиTwitterLivejournalМой МирLiveinternet
 

 
Показать сообщения:    


Вы не можете начинать темы
Вы не можете отвечать на сообщения
Вы не можете редактировать свои сообщения
Вы не можете удалять свои сообщения
Вы не можете голосовать в опросах
Вы не можете прикреплять файлы к сообщениям
Вы можете скачивать файлы