Loading...
Error

Скачать Чёрная Молния (Александр Войтинский , Дмитрий Киселёв) [2009, фантастика, боевик, мелодрама, комедия, приключения, BDRip-AVC (60 fps)] торрент без регистрации

 
Статистика раздачи
Размер:  3,22 GB   |    Скачан:  90 раз
Сидов:  8  [  0 KB/s  ]  
 
Автор Сообщение

МихаНЕзатор

[] 



Название: Черная молния
Год выпуска: 2009
Страна: Россия
Жанр: фантастика, боевик, мелодрама, комедия, приключения
Продолжительность: 01:46:08
Перевод: Оригинальный
Субтитры: русские (Полные)
Режиссер: Александр Войтинский , Дмитрий Киселёв

В ролях: Григорий Добрыгин (Дима Майков), Иван Жидков (Макс), Виктор Вержбицкий (Виктор Купцов), Сергей Гармаш (отец Димы), Валерий Золотухин (изобретатель Перепелкин), Екатерина Вилкова (Настя), Екатерина Старшова (сестра Димы Майкова), Михаил Ефремов (алкоголик №1), Игорь Савочкин (Борис), Андрей Назимов, Юозас Будрайтис (изобретатель), Екатерина Васильева

Описание: Действие картины разворачивается в наши дни, где главный герой, двадцатилетний Дима Майков, получает в подарок от отца старенькую «Волгу-21» и внезапно обнаруживает, что его машина летает, как настоящий истребитель. Герой бесцельно парит над столичными пробками и беззаботно наслаждается полетами, пока однажды беда не заставляет его по-другому взглянуть на мир.
Теперь ему предстоит встать на защиту тех, кем он дорожит, и сразиться со Злом в небе над новогодней Москвой.



Качество: BDRip-AVC 60fps
Формат: MKV
Видео: AVC, 1024x432 (2.35:1), 3700 kbps, 59,940 fps, 0,140 bpp
Аудио: русский / AC3 / 5.1 / 48 kHz / 640 kbps / 16 bit
Навигация по главам: есть

АНОНСЫ ПОПУЛЯРНЫХ РАЗДАЧ

General
Unique ID : 172735884408370745949069611700873468007 (0x81F3B8A23775189895D0AA28F61A1867)
Format : Matroska
Format version : Version 4 / Version 2
File size : 3.22 GiB
Duration : 1h 46mn
Overall bit rate : 4 347 Kbps
Movie name : Tiberiumsun69
Encoded date : UTC 2015-12-31 07:02:18
Writing application : mkvmerge v8.3.0 ('Over the Horizon') 64bit
Writing library : libebml v1.3.1 + libmatroska v1.4.2
Attachment : Yes

Video
ID : 1
Format : AVC
Format/Info : Advanced Video Codec
Format profile : High@L4.1
Format settings, CABAC : Yes
Format settings, ReFrames : 4 frames
Codec ID : V_MPEG4/ISO/AVC
Duration : 1h 46mn
Bit rate : 3 700 Kbps
Width : 1 024 pixels
Height : 432 pixels
Display aspect ratio : 2.35:1
Frame rate : 59.940 fps
Color space : YUV
Chroma subsampling : 4:2:0
Bit depth : 8 bits
Scan type : Progressive
Bits/(Pixel*Frame) : 0.140
Stream size : 2.68 GiB (83%)
Title : Tiberiumsun69
Writing library : x264 core 146 r2538 121396c
Encoding settings : cabac=1 / ref=3 / deblock=1:0:0 / analyse=0x3:0x113 / me=umh / subme=9 / psy=1 / psy_rd=1.00:0.10 / mixed_ref=1 / me_range=32 / chroma_me=1 / trellis=2 / 8x8dct=1 / cqm=0 / deadzone=21,11 / fast_pskip=0 / chroma_qp_offset=-3 / threads=12 / lookahead_threads=3 / sliced_threads=0 / nr=0 / decimate=1 / interlaced=0 / bluray_compat=0 / constrained_intra=0 / bframes=16 / b_pyramid=2 / b_adapt=2 / b_bias=0 / direct=3 / weightb=1 / open_gop=0 / weightp=2 / keyint=250 / keyint_min=25 / scenecut=40 / intra_refresh=0 / rc_lookahead=40 / rc=2pass / mbtree=0 / bitrate=3700 / ratetol=1.0 / qcomp=0.60 / qpmin=0 / qpmax=69 / qpstep=4 / cplxblur=20.0 / qblur=0.5 / vbv_maxrate=14000 / vbv_bufsize=14000 / nal_hrd=none / filler=0 / ip_ratio=1.40 / pb_ratio=1.30 / aq=1:1.00
Language : English
Default : Yes
Forced : No

Audio
ID : 2
Format : AC-3
Format/Info : Audio Coding 3
Mode extension : CM (complete main)
Codec ID : A_AC3
Duration : 1h 46mn
Bit rate mode : Constant
Bit rate : 640 Kbps
Channel(s) : 6 channels
Channel positions : Front: L C R, Side: L R, LFE
Sampling rate : 48.0 KHz
Bit depth : 16 bits
Compression mode : Lossy
Stream size : 486 MiB (15%)
Title : Оригинал
Language : Russian
Default : Yes
Forced : No

Text
ID : 3
Format : UTF-8
Codec ID : S_TEXT/UTF8
Codec ID/Info : UTF-8 Plain Text
Title : Полные
Language : Russian
Default : No
Forced : No

Menu
00:00:00.000 : en:(01)00:00:00:000
00:05:03.261 : en:(02)00:05:03:261
00:12:05.641 : en:(03)00:12:05:641
00:18:20.516 : en:(04)00:18:20:516
00:24:14.911 : en:(05)00:24:14:911
00:27:46.331 : en:(06)00:27:46:331
00:36:20.178 : en:(07)00:36:20:178
00:39:56.852 : en:(08)00:39:56:852
00:47:10.828 : en:(09)00:47:10:828
00:51:45.435 : en:(10)00:51:45:435
00:59:40.535 : en:(11)00:59:40:535
01:04:18.980 : en:(12)01:04:18:980
01:11:05.719 : en:(13)01:11:05:719
01:17:52.042 : en:(14)01:17:52:042
01:21:05.277 : en:(15)01:21:05:277
01:28:53.786 : en:(16)01:28:53:786
01:34:55.356 : en:(17)01:34:55:356
01:40:38.115 : en:(18)01:40:38:115
01:46:08.111 : en:(19)01:46:08:111

Просьба к переливающим на другие сайты, в оформлении указывайте пожалуйста авторство группы



Скачать Чёрная.Молния.(Александр.Войтинский.Дмитрий.Киселёв).[2009.фантастика.боевик.мелодрама.комедия.приключения.BDRip-AVC.(60.fps)].torrent без регистрации
Золото ЗОЛОТАЯ РАЗДАЧА! СКАЧАННОЕ НЕ ЗАСЧИТЫВАЕТСЯ! Золото
Дата: Зарегистрирован   [ Тип: внешний ] Как тут cкачать?
MAGNET ссылка
MAGNET ссылка


Скачать .torrent

17 KB

Статус: проверено DHT
Скачан: торрент - 90 раз, раздача полностью - 10 раз
Размер: 3,22 GB
Оценка:  - (Голосов: 0)
Поблагодарили: 1
Поделиться ссылкой на эту раздачу с друзьями:
В контактеFacebookОдноклассникиTwitterLivejournalМой МирLiveinternet
 

 
Показать сообщения:    


Вы не можете начинать темы
Вы не можете отвечать на сообщения
Вы не можете редактировать свои сообщения
Вы не можете удалять свои сообщения
Вы не можете голосовать в опросах
Вы не можете прикреплять файлы к сообщениям
Вы можете скачивать файлы