Loading...
Error

Скачать Шерлок: Безобразная невеста / Sherlock: The Abominable Bride (Дуглас МакКиннон) [2015, Детектив, криминал, мистика, экранизация , HDTVRip 1080p ] [DD5.1] [Dub Rus , Eng]+[Sub Rus , Eng] торрент без регистрации

 
Статистика раздачи
Размер:  6,44 GB   |    Скачан:  690 раз
Сидов:  1  [  0 KB/s  ]   Личеров:  1  [  0 KB/s  ]  
 
Автор Сообщение

Nikolai.Baranov

[] 



Шерлок: Безобразная невеста / Sherlock: The Abominable Bride




Год выпуска: 2015
Выпущено: Великобритания, Hartswood Films, BBC Wales, Masterpiece Theatre
Жанр: Детектив, криминал, мистика, экранизация
Продолжительность: 01:29:18

Озвучка # 1 :Русский : - [Дубляж, (Первый канал) Russia ]

Озвучка # 2 :Английский : - Оригинал

Субтитры: Russian , English



Режиссер: Дуглас МакКиннон

В ролях: Бенедикт Камбербэтч, Мартин Фриман, Уна Стаббс, Лу Брили, Руперт Грэйвз, Джонатан Арис, Аманда Эббингтон, Наташа О’Кифф

Отдельный рождественский эпизод сериала. Действие фильма происходит в 1895 года в Лондоне. К Шерлоку за помощью обращается некий Томас Риколетти. Он увидел свою жену в старом свадебном платье и очень удивился. А вскоре узнал, что она покончила с собой всего за несколько часов до этой странной встречи. Получается, что он видел призрак жены и, что еще хуже, теперь призрак миссис Риколетти бродит по улицам не в силах утолить жажду мести. Перемещаясь от скрытой в тумане станции «Лаймхаус» до развалин старой церкви Холмс, Ватсон и их друзья должны проявить свои лучшие качества в схватке с врагом, на первый взгляд связанным с потусторонними силами, чтобы узнать шокирующую правду о безобразной невесте!




Качество :HDTVRip 1080p
Формат: MKV
Видео кодек: H264
Видео: 8927Кбит/сек,1920х1080(16.9),в 25.000кадр/сек,AVC(High@L4.1)(CABAC/4 Ref Frames)
Аудио Кодек:AC3
Аудио #1:AC3 , 384 Kbps, 48.0 KHz, 6 ch- -Русский - [ Дубляж]
Аудио #3: AC3, 384 Kbps, 48.0 KHz, 6 ch - - Английский - Оригинал


Общее
Уникальный идентификатор : 229942293590271204167033148984783411128 (0xACFD465DEC68A9F48B2C7ED66F6A17B8)
Полное имя : D:\С Е РЕ А Л Ы\Шерлок Безобразная Невеста\Sherlock_The_Abominable_Bride_2015_RUS[1Canal_Russia]_H264_DD5.1_N.B_HDTVRip_1080p\Sherlock_The_Abominable_Bride_2015_RUS[1Canal_Russia]_H264_DD5.1_N.B_HDTVRip_1080p.mkv
Формат : Matroska
Версия формата : Version 4 / Version 2
Размер файла : 6,05 Гбайт
Продолжительность : 1 ч. 29 м.
Общий поток : 9698 Кбит/сек
Название фильма : Sherlock_The_Abominable_Bride_2015_RUS[1Canal_Russia]_H264_DD5.1_N.B_HDTVRip_1080p
Дата кодирования : UTC 2016-01-02 21:08:14
Программа кодирования : mkvmerge v8.7.0 ('All of the above') 64bit
Библиотека кодирования : libebml v1.3.3 + libmatroska v1.4.4

Видео
Идентификатор : 1
Формат : AVC
Формат/Информация : Advanced Video Codec
Профиль формата : High@L4.1
Параметр CABAC формата : Да
Параметр ReFrames формата : 4 кадра
Идентификатор кодека : V_MPEG4/ISO/AVC
Продолжительность : 1 ч. 29 м.
Битрейт : 8927 Кбит/сек
Ширина : 1920 пикселей
Высота : 1080 пикселей
Соотношение сторон : 16:9
Режим частоты кадров : Постоянный
Частота кадров : 25,000 кадров/сек
Цветовое пространство : YUV
Субдискретизация насыщенности : 4:2:0
Битовая глубина : 8 бит
Тип развёртки : Прогрессивная
Бит/(Пиксели*Кадры) : 0.172
Размер потока : 5,57 Гбайт (92%)
Библиотека кодирования : x264 core 148 r2638 7599210
Настройки программы : cabac=1 / ref=4 / deblock=1:0:0 / analyse=0x3:0x113 / me=umh / subme=8 / psy=1 / psy_rd=1.00:0.00 / mixed_ref=1 / me_range=16 / chroma_me=1 / trellis=1 / 8x8dct=1 / cqm=0 / deadzone=21,11 / fast_pskip=1 / chroma_qp_offset=-2 / threads=6 / lookahead_threads=1 / sliced_threads=0 / nr=0 / decimate=1 / interlaced=0 / bluray_compat=0 / constrained_intra=0 / bframes=3 / b_pyramid=2 / b_adapt=2 / b_bias=0 / direct=3 / weightb=1 / open_gop=0 / weightp=2 / keyint=250 / keyint_min=25 / scenecut=40 / intra_refresh=0 / rc_lookahead=50 / rc=crf / mbtree=1 / crf=18.0 / qcomp=0.60 / qpmin=0 / qpmax=69 / qpstep=4 / ip_ratio=1.40 / aq=1:1.00
Язык : English
Default : Да
Forced : Нет

Аудио #1
Идентификатор : 4
Формат : AC-3
Формат/Информация : Audio Coding 3
Расширение режима : CM (complete main)
Параметр Endianness формата : Big
Идентификатор кодека : A_AC3
Продолжительность : 1 ч. 29 м.
Вид битрейта : Постоянный
Битрейт : 384 Кбит/сек
Каналы : 6 каналов
Расположение каналов : Front: L C R, Side: L R, LFE
Частота : 48,0 КГц
Частота кадров : 31,250 кадров/сек (1536 spf)
Метод сжатия : С потерями
Размер потока : 245 Мбайт (4%)
Язык : Russian
Default : Да
Forced : Да

Аудио #2
Идентификатор : 5
Формат : AC-3
Формат/Информация : Audio Coding 3
Расширение режима : CM (complete main)
Параметр Endianness формата : Big
Идентификатор кодека : A_AC3
Продолжительность : 1 ч. 29 м.
Вид битрейта : Постоянный
Битрейт : 384 Кбит/сек
Каналы : 6 каналов
Расположение каналов : Front: L C R, Side: L R, LFE
Частота : 48,0 КГц
Частота кадров : 31,250 кадров/сек (1536 spf)
Метод сжатия : С потерями
Задержка видео : 6 мс.
Размер потока : 245 Мбайт (4%)
Язык : English
Default : Нет
Forced : Нет

Текст #1
Идентификатор : 2
Формат : UTF-8
Идентификатор кодека : S_TEXT/UTF8
Идентификатор кодека/Информация : UTF-8 Plain Text
Продолжительность : 1 ч. 28 м.
Битрейт : 128 бит/сек
Count of elements : 1078
Размер потока : 83,1 Кбайт (0%)
Язык : Russian
Default : Нет
Forced : Нет

Текст #2
Идентификатор : 3
Формат : UTF-8
Идентификатор кодека : S_TEXT/UTF8
Идентификатор кодека/Информация : UTF-8 Plain Text
Продолжительность : 1 ч. 28 м.
Битрейт : 82 бит/сек
Count of elements : 1471
Размер потока : 53,1 Кбайт (0%)
Язык : English
Default : Нет
Forced : Нет










Релиз от: Nikolai.Baranov










Скачать Шерлок.Безобразная.невеста.Sherlock.The.Abominable.Bride.(Дуглас.МакКиннон).[2015.Детектив.криминал.мистика.экранизация.HDTVRip.1080p.].[DD5.1].[Dub.Rus.Eng]+[Sub.Rus.Eng].torrent без регистрации
Золото ЗОЛОТАЯ РАЗДАЧА! СКАЧАННОЕ НЕ ЗАСЧИТЫВАЕТСЯ! Золото
Дата: Зарегистрирован   [ Тип: внутренний ] Как тут cкачать?
MAGNET ссылка
MAGNET ссылка


Скачать .torrent

17 KB

Статус: проверено DHT
Скачан: торрент - 690 раз, раздача полностью - 460 раз
Размер: 6,44 GB
Оценка:  5 (Голосов: 1)
Поблагодарили: 8
Поделиться ссылкой на эту раздачу с друзьями:
В контактеFacebookОдноклассникиTwitterLivejournalМой МирLiveinternet
 

 
Показать сообщения:    


Вы не можете начинать темы
Вы не можете отвечать на сообщения
Вы не можете редактировать свои сообщения
Вы не можете удалять свои сообщения
Вы не можете голосовать в опросах
Вы не можете прикреплять файлы к сообщениям
Вы можете скачивать файлы