Loading...
Error

Скачать Потеря сексуальной невинности / The Loss of Sexual Innocence (Майк Фиггис) [1999, драма, ..., DVDRip-AVC] [AVO (Карцев Петр)]+[Sub] торрент без регистрации

 
Статистика раздачи
Размер:  3,14 GB   |    Скачан:  65 раз
Сидов:  1  [  0 KB/s  ]  
 
Автор Сообщение

Marsianka

[] 

Название: Потеря сексуальной невинности
Оригинальное название: The Loss of Sexual Innocence
Год выхода: 1999
Страна: США, Великобритания
Студия: Newmarket Capital Group, Red Mullet Productions, Summit Entertainment
Продолжительность: 01:41:46
Жанр: драма, ...
Режиссер: Майк Фиггис
В ролях: Джулиан Сэндс, Саффрон Берроуз, Ханна Клинтой, Стефано Дионизи, Келли Макдоналд, Джина МакКи, Джонатан Риз Майерс, Бернард Хилл, Росси де Пальма, Джон Коуи, Нина МакКэй, ...
Перевод: Авторский (одноголосый, закадровый) Карцев Петр

О фильме: Жизнь Ника, подобно любой другой, содержала эпизоды, которые запоминаются навсегда. Его отношения с женщинами иногда принимали странный оборот, наслаивая ощущения друг на друга. И в этом хитросплетении чувств не все события и поступки были объяснимы…



Кодек: x264
Качество: DVDRip-AVC
Видео: 1020x572, 4000 kbps, 25 fps
Аудио #1: AC-3, 2 ch, 192 kbps (Rus) - AVO Карцев Петр
Аудио #2: AC-3, 2 ch, 224 kbps (Eng)
Субтитры: Английские (VobSub)
За исходник спасибо - max1wq

x264 [info]: frame I:716 Avg QP:16.03 size: 72897
x264 [info]: frame P:33508 Avg QP:18.80 size: 37111
x264 [info]: frame B:118433 Avg QP:20.60 size: 14833
x264 [info]: consecutive B-frames: 2.0% 3.2% 7.3% 21.0% 16.4% 40.9% 3.8% 0.9% 0.6% 0.4% 0.3% 0.3% 3.1%

Общее
Уникальный идентификатор : 177268167736432247075725969567041341964 (0x855C9B744766E22ABCE55677D7EA4A0C)
Полное имя : Потеря сексуальной невинности (The Loss of Sexual Innocence) 1999 DVDRip.mkv
Формат : Matroska
Версия формата : Version 2
Размер файла : 3,14 Гбайт
Продолжительность : 1 ч. 41 м.
Общий поток : 4418 Кбит/сек
Дата кодирования : UTC 2016-01-02 21:03:07
Программа кодирования : mkvmerge v4.0.0 ('The Stars were mine') сборка от Jun 6 2010 16:18:42
Библиотека кодирования : libebml v1.0.0 + libmatroska v1.0.0

Видео
Идентификатор : 1
Формат : AVC
Формат/Информация : Advanced Video Codec
Профиль формата : High@L4.1
Параметр CABAC формата : Да
Параметр ReFrames формата : 9 кадров
Идентификатор кодека : V_MPEG4/ISO/AVC
Продолжительность : 1 ч. 41 м.
Битрейт : 4000 Кбит/сек
Ширина : 1020 пикселей
Высота : 572 пикселя
Соотношение сторон : 16:9
Режим частоты кадров : Постоянный
Частота кадров : 25,000 кадров/сек
Цветовое пространство : YUV
Субдискретизация насыщенности : 4:2:0
Битовая глубина : 8 бит
Тип развёртки : Прогрессивная
Бит/(Пиксели*Кадры) : 0.274
Размер потока : 2,78 Гбайт (89%)
Библиотека кодирования : x264 core 146 r2538 121396c
Настройки программы : cabac=1 / ref=9 / deblock=1:-3:-3 / analyse=0x3:0x133 / me=umh / subme=11 / psy=1 / psy_rd=1.00:0.00 / mixed_ref=1 / me_range=32 / chroma_me=1 / trellis=2 / 8x8dct=1 / cqm=0 / deadzone=21,11 / fast_pskip=1 / chroma_qp_offset=-4 / threads=12 / lookahead_threads=2 / sliced_threads=0 / nr=0 / decimate=0 / interlaced=0 / bluray_compat=0 / constrained_intra=0 / bframes=12 / b_pyramid=2 / b_adapt=2 / b_bias=0 / direct=3 / weightb=1 / open_gop=0 / weightp=2 / keyint=250 / keyint_min=25 / scenecut=40 / intra_refresh=0 / rc_lookahead=60 / rc=2pass / mbtree=0 / bitrate=4000 / ratetol=1.0 / qcomp=0.60 / qpmin=0 / qpmax=69 / qpstep=4 / cplxblur=20.0 / qblur=0.5 / vbv_maxrate=50000 / vbv_bufsize=62500 / nal_hrd=none / filler=0 / ip_ratio=1.40 / pb_ratio=1.30 / aq=1:0.80
Язык : English
Default : Нет
Forced : Нет

Аудио #1
Идентификатор : 2
Формат : AC-3
Формат/Информация : Audio Coding 3
Расширение режима : CM (complete main)
Параметр Endianness формата : Big
Идентификатор кодека : A_AC3
Продолжительность : 1 ч. 41 м.
Вид битрейта : Постоянный
Битрейт : 192 Кбит/сек
Каналы : 2 канала
Расположение каналов : Front: L R
Частота : 48,0 КГц
Метод сжатия : С потерями
Размер потока : 140 Мбайт (4%)
Заголовок : AVO Карцев Петр
Язык : Russian
Default : Нет
Forced : Нет

Аудио #2
Идентификатор : 3
Формат : AC-3
Формат/Информация : Audio Coding 3
Расширение режима : CM (complete main)
Параметр Endianness формата : Big
Идентификатор кодека : A_AC3
Продолжительность : 1 ч. 41 м.
Вид битрейта : Постоянный
Битрейт : 224 Кбит/сек
Каналы : 2 канала
Расположение каналов : Front: L R
Частота : 48,0 КГц
Метод сжатия : С потерями
Размер потока : 163 Мбайт (5%)
Язык : English
Default : Нет
Forced : Нет

Текст
Идентификатор : 4
Формат : VobSub
Режим смешивания : zlib
Идентификатор кодека : S_VOBSUB
Идентификатор кодека/Информация : Picture based subtitle format used on DVDs
Язык : English
Default : Нет
Forced : Нет



Скачать Потеря.сексуальной.невинности.The.Loss.of.Sexual.Innocence.(Майк.Фиггис).[1999.драма.DVDRip-AVC].[AVO.(Карцев.Петр)]+[Sub].torrent без регистрации
Золото ЗОЛОТАЯ РАЗДАЧА! СКАЧАННОЕ НЕ ЗАСЧИТЫВАЕТСЯ! Золото
Дата: Зарегистрирован   [ Тип: внутренний ] Как тут cкачать?
MAGNET ссылка
MAGNET ссылка


Скачать .torrent

16 KB

Статус: проверено DHT
Скачан: торрент - 65 раз, раздача полностью - 10 раз
Размер: 3,14 GB
Оценка:  5 (Голосов: 1)
Поблагодарили: 2
Поделиться ссылкой на эту раздачу с друзьями:
В контактеFacebookОдноклассникиTwitterLivejournalМой МирLiveinternet
 

 
Показать сообщения:    


Вы не можете начинать темы
Вы не можете отвечать на сообщения
Вы не можете редактировать свои сообщения
Вы не можете удалять свои сообщения
Вы не можете голосовать в опросах
Вы не можете прикреплять файлы к сообщениям
Вы можете скачивать файлы