Loading...
Error

Скачать Человек без памяти / Пазл / L'Uomo senza memoria / Puzzle (Дуччо Тессари) [1974, триллер, DVDRip] [AVO (Медведев)]+[Оригинал] торрент без регистрации

 
Статистика раздачи
Размер:  1,46 GB   |    Скачан:  64 раза
Сидов:  1  [  0 KB/s  ]  
 
Автор Сообщение

Marsianka

[] 

Страна: Италия
Производство: Dania Film
Жанр: триллер
Год выпуска: 1974

Продолжительность: 01:28:46

Перевод: Авторский (Медведев)

Оригинальная аудиодорожка: Итальянская

Режиссер: Дуччо Тессари

В ролях: Зента Бергер, Люк Меренда, Умберто Орсини, Анита Стриндберг, Бруно Кораццари, Розарио Борелли, Манфред Фрейбергер, Том Феллеги, Карла Манчини, Витторио Фанфони

Описание: В результате последствий автокатастрофы Эдвард Уолтон теряет память. В ее восстановлении заинтересованы не только он и его жена Сара, но и спецслужбы, добивающиеся своих целей. Эдвард, мучаясь и страдая, пытается склеить в воображении осколки своего прошлого, которые нередко буквально пугают его.



Исходник: DVD9 R2

Тип релиза: DVDRip

Контейнер: AVI

Видео: 704x384 (1.83:1), 23.976 fps, XviD ~1956 kbps avg, 0.30 bit/pixel
Аудио: #1: 48 kHz, AC3 2.0 ~192.00 kbps avg (RUS)
Аудио: #2: 48 kHz, AC3 2.0 ~192.00 kbps avg (ITA)
Общее
Полное имя : D:1АААЧеловек без памяти.avi
Формат : AVI
Формат/Информация : Audio Video Interleave
Размер файла : 1,46 Гбайт
Продолжительность : 1 ч. 28 м.
Общий поток : 2355 Кбит/сек
Программа кодирования : VirtualDubMod 1.5.10.2 (build 2540/release)
Библиотека кодирования : VirtualDubMod build 2540/release

Видео
Идентификатор : 0
Формат : MPEG-4 Visual
Профиль формата : Advanced Simple@L5
Параметр BVOP формата : 2
Параметр QPel формата : Нет
Параметр GMC формата : Без точки перехода
Параметр матрицы формата : Default (MPEG)
Режим смешивания : Сжатый битовый поток
Идентификатор кодека : XVID
Идентификатор кодека/Подсказка : XviD
Продолжительность : 1 ч. 28 м.
Битрейт : 1957 Кбит/сек
Ширина : 704 пикселя
Высота : 384 пикселя
Соотношение сторон : 1,85:1
Частота кадров : 23,976 кадра/сек
Цветовое пространство : YUV
Субдискретизация насыщенности : 4:2:0
Битовая глубина : 8 бит
Тип развёртки : Прогрессивная
Метод сжатия : С потерями
Бит/(Пиксели*Кадры) : 0.302
Размер потока : 1,21 Гбайт (83%)
Библиотека кодирования : XviD 1.2.1 (UTC 2008-12-04)

Аудио #1
Идентификатор : 1
Формат : AC-3
Формат/Информация : Audio Coding 3
Расширение режима : CM (complete main)
Параметр Endianness формата : Big
Идентификатор кодека : 2000
Продолжительность : 1 ч. 28 м.
Вид битрейта : Постоянный
Битрейт : 192 Кбит/сек
Каналы : 2 канала
Расположение каналов : Front: L R
Частота : 48,0 КГц
Битовая глубина : 16 бит
Метод сжатия : С потерями
Размер потока : 122 Мбайт (8%)
Выравнивание : Разделение по промежуткам
Продолжительность промежутка : 42 мс. (1,00 видеокадр)
Время предзагрузки промежутка : 500 мс.

Аудио #2
Идентификатор : 2
Формат : AC-3
Формат/Информация : Audio Coding 3
Расширение режима : CM (complete main)
Параметр Endianness формата : Big
Идентификатор кодека : 2000
Продолжительность : 1 ч. 28 м.
Вид битрейта : Постоянный
Битрейт : 192 Кбит/сек
Каналы : 2 канала
Расположение каналов : Front: L R
Частота : 48,0 КГц
Битовая глубина : 16 бит
Метод сжатия : С потерями
Размер потока : 122 Мбайт (8%)
Выравнивание : Разделение по промежуткам
Продолжительность промежутка : 42 мс. (1,00 видеокадр)
Время предзагрузки промежутка : 500 мс.
Релиз группа:

Автор рипа:



Скачать Человек.без.памяти.Пазл.L'Uomo.senza.memoria.Puzzle.(Дуччо.Тессари).[1974.триллер.DVDRip].[AVO.(Медведев)]+[Оригинал].torrent без регистрации
Золото ЗОЛОТАЯ РАЗДАЧА! СКАЧАННОЕ НЕ ЗАСЧИТЫВАЕТСЯ! Золото
Дата: Зарегистрирован   [ Тип: внутренний ] Как тут cкачать?
MAGNET ссылка
MAGNET ссылка


Скачать .torrent

15 KB

Статус: проверено DHT
Скачан: торрент - 64 раз, раздача полностью - 1 раз
Размер: 1,46 GB
Оценка:  - (Голосов: 0)
Поблагодарили: 1
Поделиться ссылкой на эту раздачу с друзьями:
В контактеFacebookОдноклассникиTwitterLivejournalМой МирLiveinternet
 

 
Показать сообщения:    


Вы не можете начинать темы
Вы не можете отвечать на сообщения
Вы не можете редактировать свои сообщения
Вы не можете удалять свои сообщения
Вы не можете голосовать в опросах
Вы не можете прикреплять файлы к сообщениям
Вы можете скачивать файлы