Loading...
Error

Скачать Настоящая женщина / True Women [01-02 из 02] (Карен Артур) [1997, драма, мелодрама, вестерн, военный, биография, история, DVDRip-AVC] [MVO]+[Оригинал] торрент без регистрации

 
Статистика раздачи
Размер:  3,46 GB   |    Скачан:  47 раз
Сидов:  1  [  23 KB/s  ]   Личеров:  1  [  0 KB/s  ]  
 
Автор Сообщение

Marsianka

[] 

Информация о фильме
Название: Настоящая женщина
Оригинальное название: True Women
Год выхода: 1997
Жанр: драма, мелодрама, вестерн, военный, биография, история
Режиссер: Карен Артур

В ролях:
Дана Дилейни — Sarah McClure, Анджелина Джоли — Georgia Virginia Lawshe Woods (adult), Аннабет Гиш — Euphemia Ashby (adult), Рэйчел Ли Кук — Georgia Virginia Lawshe Woods (young), Тина Мажорино — Euphemia Ashby (young), Майкл Йорк — Lewis Lawshe, Джеффри Нордлинг — Dr. Peter Woods, Салли Ричардсон-Уайтфилд — Martha, Тони Тодд — Ed Tom, Джули Кармен — Cherokee Lawshe, Мэттью Глэйв — William King, Джон Шнайдер — Sam Houston, Майкл Грейэйс — Tarantula, Энн Тремко — Matilda Lockhart, Ирэн Бидард — Tobe, Пауэрс Бут — Bartlett McClure, Кадиджа Каррим — Tildy.

О фильме:
Америка на пороге гражданской войны. История жизни трех отважных женщин, которых сплотила борьба за выживание в смутные для страны времена. Они оказались на самой границе сражений Севера и Юга. Но законы на своей родной земле они будут устанавливать сами. Ничто не сломит их храбрый дух: они будут бороться с несправедливостью, защищать свой дом от индейцев, северян и южан. Многое они испытают и переживут за эти годы: ненависть, разлуки, потери, тяготы, редкие минуты счастья и, конечно, любовь. Их имена войдут в историю, их запомнят, как истинных, настоящих женщин…



Страна: США
Студия: Craig Anderson Productions Inc., Hallmark Entertainment, Columbia Broadcasting System
Продолжительность: 2 х ~ 01:27:00
Перевод: Профессиональный многоголосый, Оригинал

Файл
Кодек: x264
Качество: DVDRip-AVC
Видео: 720x576 @ 768x576 (4:3), 25.000 fps, 1936 kbps

Аудио #1: AC3, 448 Kbps, 48.0 KHz, 6 ch (Rus) Профессиональный многоголосый
Аудио #2: AC3, 448 Kbps, 48.0 KHz, 6 ch (Eng) Оригинал
Субтитры: Нет
Формат : Matroska
Версия формата : Version 2
Размер файла : 1,73 Гбайт
Продолжительность : 1 ч. 27 м.
Общий поток : 2834 Кбит/сек
Дата кодирования : UTC 2015-12-24 10:45:55
Программа кодирования : mkvmerge v5.4.0 ('Piper') built on Mar 10 2012 13:34:39
Библиотека кодирования : libebml v1.2.3 + libmatroska v1.3.0

Видео
Идентификатор : 1
Формат : AVC
Формат/Информация : Advanced Video Codec
Профиль формата : High@L3.1
Параметр CABAC формата : Да
Параметр ReFrames формата : 8 кадров
Идентификатор кодека : V_MPEG4/ISO/AVC
Продолжительность : 1 ч. 27 м.
Битрейт : 1936 Кбит/сек
Ширина : 720 пикселей
Высота : 576 пикселей
Соотношение сторон : 4:3
Режим частоты кадров : Постоянный
Частота кадров : 25,000 кадров/сек
Стандарт вещания : PAL
Цветовое пространство : YUV
Субдискретизация насыщенности : 4:2:0
Битовая глубина : 8 бит
Тип развёртки : Прогрессивная
Бит/(Пиксели*Кадры) : 0.187
Размер потока : 1,15 Гбайт (66%)
Заголовок : True Women / Настоящая женщина (1997)
Библиотека кодирования : x264 core 133 r2334 a3ac64b
Настройки программы : cabac=1 / ref=8 / deblock=1:-3:-3 / analyse=0x3:0x133 / me=umh / subme=10 / psy=1 / psy_rd=1.00:0.00 / mixed_ref=1 / me_range=32 / chroma_me=1 / trellis=2 / 8x8dct=1 / cqm=0 / deadzone=21,11 / fast_pskip=0 / chroma_qp_offset=-2 / threads=9 / lookahead_threads=1 / sliced_threads=0 / nr=0 / decimate=0 / interlaced=0 / bluray_compat=0 / constrained_intra=0 / bframes=8 / b_pyramid=2 / b_adapt=2 / b_bias=0 / direct=3 / weightb=1 / open_gop=0 / weightp=2 / keyint=250 / keyint_min=25 / scenecut=40 / intra_refresh=0 / rc_lookahead=60 / rc=2pass / mbtree=1 / bitrate=1936 / ratetol=1.0 / qcomp=0.60 / qpmin=0 / qpmax=69 / qpstep=4 / cplxblur=20.0 / qblur=0.5 / ip_ratio=1.40 / aq=1:1.00
Язык : English
Default : Да
Forced : Нет

Аудио #1
Идентификатор : 2
Формат : AC-3
Формат/Информация : Audio Coding 3
Расширение режима : CM (complete main)
Параметр Endianness формата : Big
Идентификатор кодека : A_AC3
Продолжительность : 1 ч. 27 м.
Вид битрейта : Постоянный
Битрейт : 448 Кбит/сек
Каналы : 6 каналов
Расположение каналов : Front: L C R, Side: L R, LFE
Частота : 48,0 КГц
Битовая глубина : 16 бит
Метод сжатия : С потерями
Размер потока : 280 Мбайт (16%)
Заголовок : MVO (Russian)
Язык : Russian
Default : Да
Forced : Нет

Аудио #2
Идентификатор : 3
Формат : AC-3
Формат/Информация : Audio Coding 3
Расширение режима : CM (complete main)
Параметр Endianness формата : Big
Идентификатор кодека : A_AC3
Продолжительность : 1 ч. 27 м.
Вид битрейта : Постоянный
Битрейт : 448 Кбит/сек
Каналы : 6 каналов
Расположение каналов : Front: L C R, Side: L R, LFE
Частота : 48,0 КГц
Битовая глубина : 16 бит
Метод сжатия : С потерями
Размер потока : 280 Мбайт (16%)
Заголовок : Original (English)
Язык : English
Default : Нет
Forced : Нет
Релиз от: jf-160



Скачать Настоящая.женщина.True.Women.[01-02.из.02].(Карен.Артур).[1997.драма.мелодрама.вестерн.военный.биография.история.DVDRip-AVC].[MVO]+[Оригинал].torrent без регистрации
Золото ЗОЛОТАЯ РАЗДАЧА! СКАЧАННОЕ НЕ ЗАСЧИТЫВАЕТСЯ! Золото
Дата: Зарегистрирован   [ Тип: внутренний ] Как тут cкачать?
MAGNET ссылка
MAGNET ссылка


Скачать .torrent

18 KB

Статус: проверено DHT
Скачан: торрент - 47 раз, раздача полностью - 75 раз
Размер: 3,46 GB
Оценка:  - (Голосов: 0)
Поблагодарили: 0
Поделиться ссылкой на эту раздачу с друзьями:
В контактеFacebookОдноклассникиTwitterLivejournalМой МирLiveinternet
 

 
Показать сообщения:    


Вы не можете начинать темы
Вы не можете отвечать на сообщения
Вы не можете редактировать свои сообщения
Вы не можете удалять свои сообщения
Вы не можете голосовать в опросах
Вы не можете прикреплять файлы к сообщениям
Вы можете скачивать файлы