Loading...
Error

Скачать Оружейный барон / Lord of War (Эндрю Никкол) [2005, триллер, драма, криминал, BDRip-AVC] [AVO (Дмитрий Есарев)]+[Sub]x2 торрент без регистрации

 
Статистика раздачи
Размер:  3,08 GB   |    Скачан:  185 раз
Сидов:  1  [  0 KB/s  ]  
 
Автор Сообщение

Marsianka

[] 

Информация о фильме
Название: Оружейный барон
Оригинальное название: Lord of War
Год выхода: 2005
Жанр: триллер, драма, криминал
Режиссер: Эндрю Никкол
В ролях: Николас Кейдж, Бриджет Мойнэхэн, Джаред Лето, Итан Хоук, Иэн Холм, Шаке Тухманян, Жан-Пьер Ншанян, Имонн Уолкер, Сэмми Ротиби, Евгений Лазарев

О фильме:
Родители братьев Орловых, старшего Юрия и младшего Виталия, покинули Украину и обосновались в Америке, на Брайтон-Бич, где открыли маленький ресторанчик. Дети же не рвались идти по родительским стопам. Юрий, раздумывая, чем заниматься, пришел к выводу: самое выгодное — торговать оружием. Потому что в мире, переполненном агрессией, оружие никогда не бывает лишним. Оно нужно и родственникам, дерущимся друг с другом, и конкурирующим бандам, и враждующим государствам.

Юрий Орлов, опираясь на младшего брата Виталия, быстро завоевывает свое место под солнцем и надеется в скором времени стать таким же крутым «продавцом смерти», как его кумир Симеон Вайс. Но чем выше поднимается Юрий, тем ближе к нему подбирается агент Интерпола Джек Валентайн…



Страна: США, Германия, Франция
Студия: Ascendant Pictures, Endgame Entertainment, Saturn Films
Продолжительность: 02:01:58
Перевод: Авторский (одноголосый, закадровый) Дмитрий Есарев

Релиз:

Файл
Формат: Matroska
Видео: 1024x426 at 23.976 fps, x264@L4.1, ~2700 kbps avg
Aудио#1: Russian: 48 kHz, AC3, 3/2 (L,C,R,l,r) + LFE ch, ~448.00 kbps avg |Авторский, Д.Есарев|
Aудио#2: English: 48 kHz, AC3, 3/2 (L,C,R,l,r) + LFE ch, ~448.00 kbps avg
Субтитры: Russian, English

***Перевод Дмитрия Есарева доступен благодаря - dikii. Работа со звуком - mihaildns.
***Внимание! В переводе присутствует ненормативная лексика!
Общее
Уникальный идентификатор : 251255069225583884401794462413311707607 (0xBD05F7559C4FD9AC9FE8E883CFFC09D7)
Полное имя : Lord of War.2005.BDRip-AVC.AVO.Esarev.mkv
Формат : Matroska
Версия формата : Version 4 / Version 2
Размер файла : 3,08 Гбайт
Продолжительность : 2 ч. 1 м.
Общий поток : 3611 Кбит/сек
Дата кодирования : UTC 2016-01-05 07:36:38
Программа кодирования : mkvmerge v8.3.0 ('Over the Horizon') 64bit
Библиотека кодирования : libebml v1.3.1 + libmatroska v1.4.2
Attachements : Lord of War.jpg

Видео
Идентификатор : 1
Формат : AVC
Формат/Информация : Advanced Video Codec
Профиль формата : High@L4.1
Параметр CABAC формата : Да
Параметр ReFrames формата : 10 кадров
Идентификатор кодека : V_MPEG4/ISO/AVC
Продолжительность : 2 ч. 1 м.
Битрейт : 2712 Кбит/сек
Ширина : 1024 пикселя
Высота : 426 пикселей
Соотношение сторон : 2,40:1
Режим частоты кадров : Постоянный
Частота кадров : 23,976 кадра/сек
Цветовое пространство : YUV
Субдискретизация насыщенности : 4:2:0
Битовая глубина : 8 бит
Тип развёртки : Прогрессивная
Бит/(Пиксели*Кадры) : 0.259
Размер потока : 2,25 Гбайт (73%)
Библиотека кодирования : x264 core 130 r2273 b3065e6
Настройки программы : cabac=1 / ref=10 / deblock=1:-2:-2 / analyse=0x3:0x113 / me=umh / subme=11 / psy=1 / psy_rd=1.00:0.20 / mixed_ref=1 / me_range=48 / chroma_me=1 / trellis=2 / 8x8dct=1 / cqm=0 / deadzone=21,11 / fast_pskip=0 / chroma_qp_offset=-3 / threads=9 / lookahead_threads=1 / sliced_threads=0 / nr=0 / decimate=0 / interlaced=0 / bluray_compat=0 / constrained_intra=0 / bframes=8 / b_pyramid=2 / b_adapt=2 / b_bias=0 / direct=3 / weightb=1 / open_gop=0 / weightp=2 / keyint=240 / keyint_min=23 / scenecut=40 / intra_refresh=0 / rc=2pass / mbtree=0 / bitrate=2712 / ratetol=1.0 / qcomp=0.60 / qpmin=0 / qpmax=69 / qpstep=4 / cplxblur=20.0 / qblur=0.5 / ip_ratio=1.40 / pb_ratio=1.30 / aq=1:1.00
Язык : Russian
Default : Да
Forced : Да

Аудио #1
Идентификатор : 2
Формат : AC-3
Формат/Информация : Audio Coding 3
Расширение режима : CM (complete main)
Параметр Endianness формата : Big
Идентификатор кодека : A_AC3
Продолжительность : 2 ч. 1 м.
Вид битрейта : Постоянный
Битрейт : 448 Кбит/сек
Каналы : 6 каналов
Расположение каналов : Front: L C R, Side: L R, LFE
Частота : 48,0 КГц
Метод сжатия : С потерями
Размер потока : 391 Мбайт (12%)
Заголовок : Д.Есарев
Язык : Russian
Default : Да
Forced : Нет

Аудио #2
Идентификатор : 3
Формат : AC-3
Формат/Информация : Audio Coding 3
Расширение режима : CM (complete main)
Параметр Endianness формата : Big
Идентификатор кодека : A_AC3
Продолжительность : 2 ч. 1 м.
Вид битрейта : Постоянный
Битрейт : 448 Кбит/сек
Каналы : 6 каналов
Расположение каналов : Front: L C R, Side: L R, LFE
Частота : 48,0 КГц
Метод сжатия : С потерями
Размер потока : 391 Мбайт (12%)
Язык : English
Default : Нет
Forced : Нет

Текст #1
Идентификатор : 4
Формат : UTF-8
Идентификатор кодека : S_TEXT/UTF8
Идентификатор кодека/Информация : UTF-8 Plain Text
Язык : Russian
Default : Нет
Forced : Нет

Текст #2
Идентификатор : 5
Формат : UTF-8
Идентификатор кодека : S_TEXT/UTF8
Идентификатор кодека/Информация : UTF-8 Plain Text
Язык : Russian
Default : Нет
Forced : Нет

Текст #3
Идентификатор : 6
Формат : UTF-8
Идентификатор кодека : S_TEXT/UTF8
Идентификатор кодека/Информация : UTF-8 Plain Text
Язык : English
Default : Нет
Forced : Нет

Меню
00:00:00.000 : en:End of the Line
00:08:13.618 : en:Brothers in Arms
00:17:33.553 : en:World Famous
00:24:46.527 : en:We Celebrate
00:32:54.848 : en:Double Life
00:42:18.661 : en:There for the Talking
00:52:17.259 : en:Gunrunner’s Dream
01:00:37.133 : en:“Peace Talks?”
01:08:58.718 : en:Plenty to go Around
01:17:47.079 : en:Brown Brown
01:25:03.932 : en:Blood Money
01:32:43.099 : en:Hide & Seek
01:46:29.508 : en:One Bullet
01:54:23.482 : en:Back



Скачать Оружейный.барон.Lord.of.War.(Эндрю.Никкол).[2005.триллер.драма.криминал.BDRip-AVC].[AVO.(Дмитрий.Есарев)]+[Sub]x2.torrent без регистрации
Золото ЗОЛОТАЯ РАЗДАЧА! СКАЧАННОЕ НЕ ЗАСЧИТЫВАЕТСЯ! Золото
Дата: Зарегистрирован   [ Тип: внутренний ] Как тут cкачать?
MAGNET ссылка
MAGNET ссылка


Скачать .torrent

16 KB

Статус: проверено DHT
Скачан: торрент - 185 раз, раздача полностью - 21 раз
Размер: 3,08 GB
Оценка:  - (Голосов: 0)
Поблагодарили: 1
Поделиться ссылкой на эту раздачу с друзьями:
В контактеFacebookОдноклассникиTwitterLivejournalМой МирLiveinternet
 

 
Показать сообщения:    


Вы не можете начинать темы
Вы не можете отвечать на сообщения
Вы не можете редактировать свои сообщения
Вы не можете удалять свои сообщения
Вы не можете голосовать в опросах
Вы не можете прикреплять файлы к сообщениям
Вы можете скачивать файлы