Loading...
Error

Скачать Не трогай топор / Ne touchez pas la hache (Жак Риветт) [2007, драма, DVDRip-AVC] [DVO]+[Sub] торрент без регистрации

 
Статистика раздачи
Размер:  1,58 GB   |    Скачан:  43 раза
Сидов:  1  [  0 KB/s  ]  
 
Автор Сообщение

Marsianka

[] 

Информация о фильме
Название: Не трогай топор
Оригинальное название: Ne touchez pas la hache
Год выхода: 2007
Жанр: драма
Режиссер: Жак Риветт / Jacques Rivette
В ролях: Гийом Депардье / Guillaume Depardieu, Жанна Балибар / Jeanne Balibar, Мишель Пикколи / Michel Piccoli, Бюль Ожье / Bulle Ogier

О фильме:
Экранизация романа Оноре де Бальзака "Герцогиня де Ланже". Остров Майорка, 1823 год. Французский генерал Арман де Монриво (Гийом Депардье) узнает в монахине ордена кармелиток свою возлюбленную, герцогиню Антуанетту де Ланже (Жанна Балибар), которую искал последние пять лет.


Страна: Франция, Италия
Студия: Pierre Grise Productions, Cinemaundici, Arte France Cinéma
Продолжительность: 02:18:03.358
Перевод: Профессиональный (двухголосый закадровый) Студия "Пифагор" для ГТРК "Культура"

Файл
Кодек: h.264
Качество: DVDRip-AVC Источник R1 IFC Films
Видео: 712x464 (1.85:1) @ 849x464, 23.976 fps, AVC, ~1285 Kbps, 0.162 bits/pixel

Русский, 48.0 KHz, AC3, 2 ch, 160 Kbps (двойное моно)
Французский, 48.0 KHz, AC3, 2 ch, 192 Kbps
Субтитры: Английские, VobSub
бщее
Уникальный идентификатор : 208434683503131747950398145887736072284 (0x9CCF0F51B948F8B8959DB7D51442885C)
Полное имя : I:FilmsNe_trogai_topor.2007.DVDRip-AVC.mkv
Формат : Matroska
Версия формата : Version 4 / Version 2
Размер файла : 1,58 Гбайт
Продолжительность : 2 ч. 18 м.
Общий поток : 1640 Кбит/сек
Дата кодирования : UTC 2016-01-06 15:33:17
Программа кодирования : mkvmerge v8.7.0 ('All of the above') 64bit
Библиотека кодирования : libebml v1.3.3 + libmatroska v1.4.4

Видео
Идентификатор : 1
Формат : AVC
Формат/Информация : Advanced Video Codec
Профиль формата : High@L4.1
Параметр CABAC формата : Да
Параметр ReFrames формата : 11 кадров
Идентификатор кодека : V_MPEG4/ISO/AVC
Продолжительность : 2 ч. 18 м.
Битрейт : 1285 Кбит/сек
Ширина : 712 пикселей
Высота : 464 пикселя
Соотношение сторон : 1,85:1
Соотношение сторон в оригинале : 1,85:1
Режим частоты кадров : Постоянный
Частота кадров : 23,976 (24000/1001) кадра/сек
Цветовое пространство : YUV
Субдискретизация насыщенности : 4:2:0
Битовая глубина : 8 бит
Тип развёртки : Прогрессивная
Бит/(Пиксели*Кадры) : 0.162
Размер потока : 1,24 Гбайт (78%)
Библиотека кодирования : x264 core 148 r2638 7599210
Настройки программы : cabac=1 / ref=11 / deblock=1:0:0 / analyse=0x3:0x133 / me=umh / subme=11 / psy=1 / psy_rd=1.10:0.15 / mixed_ref=1 / me_range=48 / chroma_me=1 / trellis=2 / 8x8dct=1 / cqm=0 / deadzone=21,11 / fast_pskip=0 / chroma_qp_offset=-3 / threads=8 / lookahead_threads=2 / sliced_threads=0 / nr=0 / decimate=0 / interlaced=0 / bluray_compat=0 / constrained_intra=0 / bframes=10 / b_pyramid=2 / b_adapt=2 / b_bias=0 / direct=3 / weightb=1 / open_gop=0 / weightp=2 / keyint=240 / keyint_min=23 / scenecut=40 / intra_refresh=0 / rc_lookahead=60 / rc=2pass / mbtree=0 / bitrate=1285 / ratetol=1.0 / qcomp=0.60 / qpmin=0 / qpmax=69 / qpstep=4 / cplxblur=20.0 / qblur=0.5 / vbv_maxrate=40000 / vbv_bufsize=50000 / nal_hrd=none / filler=0 / ip_ratio=1.40 / pb_ratio=1.30 / aq=1:1.00
Default : Нет
Forced : Нет
Цветовой диапазон : Limited
Коэффициенты матрицы : BT.601

Аудио #1
Идентификатор : 2
Формат : AC-3
Формат/Информация : Audio Coding 3
Расширение режима : CM (complete main)
Параметр Endianness формата : Big
Идентификатор кодека : A_AC3
Продолжительность : 2 ч. 18 м.
Вид битрейта : Постоянный
Битрейт : 160 Кбит/сек
Каналы : 2 канала
Расположение каналов : Front: L R
Частота : 48,0 КГц
Частота кадров : 31,250 кадров/сек (1536 spf)
Метод сжатия : С потерями
Размер потока : 158 Мбайт (10%)
Язык : Russian
Default : Да
Forced : Нет

Аудио #2
Идентификатор : 3
Формат : AC-3
Формат/Информация : Audio Coding 3
Расширение режима : CM (complete main)
Параметр Endianness формата : Big
Идентификатор кодека : A_AC3
Продолжительность : 2 ч. 18 м.
Вид битрейта : Постоянный
Битрейт : 192 Кбит/сек
Каналы : 2 канала
Расположение каналов : Front: L R
Частота : 48,0 КГц
Частота кадров : 31,250 кадров/сек (1536 spf)
Метод сжатия : С потерями
Размер потока : 190 Мбайт (12%)
Язык : French
Default : Нет
Forced : Нет

Текст
Идентификатор : 4
Формат : VobSub
Режим смешивания : zlib
Идентификатор кодека : S_VOBSUB
Идентификатор кодека/Информация : Picture based subtitle format used on DVDs
Продолжительность : 2 ч. 13 м.
Битрейт : 1356 бит/сек
Count of elements : 1166
Размер потока : 1,30 Мбайт (0%)
Язык : English
Default : Нет
Forced : Нет

Меню
00:00:00.000 : en:Chapter 01
00:12:14.834 : en:Chapter 02
00:20:59.401 : en:Chapter 03
00:28:59.568 : en:Chapter 04
00:43:15.536 : en:Chapter 05
00:50:33.070 : en:Chapter 06
01:01:43.871 : en:Chapter 07
01:05:25.572 : en:Chapter 08
01:07:18.239 : en:Chapter 09
01:29:24.507 : en:Chapter 10
01:38:27.141 : en:Chapter 11
01:45:21.608 : en:Chapter 12
01:51:45.608 : en:Chapter 13
02:01:09.309 : en:Chapter 14
02:08:18.910 : en:Chapter 15
02:14:03.410 : en:Chapter 16
frame I:968 Avg QP:15.50 size: 44456
frame P:34178 Avg QP:18.45 size: 15444
frame B:163456 Avg QP:19.95 size: 4645
Релиз от: Temperest



Скачать Не.трогай.топор.Ne.touchez.pas.la.hache.(Жак.Риветт).[2007.драма.DVDRip-AVC].[DVO]+[Sub].torrent без регистрации
Золото ЗОЛОТАЯ РАЗДАЧА! СКАЧАННОЕ НЕ ЗАСЧИТЫВАЕТСЯ! Золото
Дата: Зарегистрирован   [ Тип: внутренний ] Как тут cкачать?
MAGNET ссылка
MAGNET ссылка


Скачать .torrent

16 KB

Статус: проверено DHT
Скачан: торрент - 43 раз, раздача полностью - 9 раз
Размер: 1,58 GB
Оценка:  - (Голосов: 0)
Поблагодарили: 2
Поделиться ссылкой на эту раздачу с друзьями:
В контактеFacebookОдноклассникиTwitterLivejournalМой МирLiveinternet
 

 
Показать сообщения:    


Вы не можете начинать темы
Вы не можете отвечать на сообщения
Вы не можете редактировать свои сообщения
Вы не можете удалять свои сообщения
Вы не можете голосовать в опросах
Вы не можете прикреплять файлы к сообщениям
Вы можете скачивать файлы