Loading...
Error

Скачать Мост / Bron/Broen (сезон 03) (Хенрик Георгссон и др.) [2015, триллер, криминал, детектив, HDRip-AVC] [MVO (Amedia)] торрент без регистрации

 
Статистика раздачи
Размер:  6,21 GB   |    Скачан:  59 раз
Сидов:  1  [  0 KB/s  ]  
 
Автор Сообщение

МихаНЕзатор

[] 



Информация о фильме:
✦ Название: Мост
✦ Оригинальное название: Bron / Broen / The Bridge
✦ Год выхода: 2015
✦ Жанр: триллер, криминал, детектив
✦ Режиссер: Хенрик Георгссон, Шарлотта Зилинг, Кэтрин Уиндфельд

✦ В ролях: София Хелин, Ким Бодния, Даг Малмберг, Эмиль Бирк Хартманн, Рафаэль Петтерссон, Кристина Бранден, Сара Боберг, Магнус Креппер, Кристиан Лима де Фариа, Магнус Шмитц, Эллен Хиллингсо, Ларс Симонсен, Йорген Торссон, Оле Бойсен и др.

Описание фильма: Долгожданное продолжение датско-шведского сериала «Мост»! После событий второго сезона прошло полгода, и Саге Норен вместе с коллегами предстоит раскрыть новое дело. Совершено убийство датчанки Хелле Анкер, которая была директором гендерно нейтральной школы — первого подобного заведения в стране. Третий сезон, окрашенный в более мрачные тона, поставит героиню перед новыми трудностями: ей придется знакомиться с новыми людьми, вести запутанное расследование, но что самое страшное для нее — посмотреть в глаза своему прошлому, от которого она тщательно пыталась отгородиться.



✦ Страна: Швеция, Дания
✦ Продолжительность: ~ 00:57:00 серия
✦ Перевод: профессиональный (многоголосый, закадровый) | Amedia

Информация о файле:
✦ Кодек: h.264
✦ Формат:MKV
✦ Качество: HDRip-AVC
✦ Видео: ~ 1300 kbps, 1024x576
✦ Аудио Rus: AC3, 2 ch, 192 kbps
✦ Субтитры: отсутствуют

АНОНСЫ ПОПУЛЯРНЫХ РАЗДАЧ
General
Unique ID : 327270655491849207124406525207256500594 (0xF6360918B27AB7C320FEC7C36B940972)
Complete name : F:СериалыМост.2015.S03.HDRIP_AVCThe.Bridge.2015.S03E01.HDRIP_AVC.[-=DoMiNo=-].mkv
Format : Matroska
Format version : Version 4 / Version 2
File size : 660 MiB
Duration : 58mn 17s
Overall bit rate : 1 583 Kbps
Movie name : The.Bridge.2015.S03E01
Writing application : XviD4PSP 7.0.199
Writing library : Lavf56.40.101 / Lavf56.40.101
Attachements : cover.png
ENCODING_INFO : MATROSKA,WEBM > MKV / H264 > X264 CRF 17.0 Custom / AC3 > COPY

Video
ID : 1
Format : AVC
Format/Info : Advanced Video Codec
Format profile : High@L4.1
Format settings, CABAC : Yes
Format settings, ReFrames : 10 frames
Codec ID : V_MPEG4/ISO/AVC
Duration : 58mn 17s
Bit rate : 1 359 Kbps
Width : 1 024 pixels
Height : 576 pixels
Display aspect ratio : 16:9
Frame rate mode : Constant
Frame rate : 25.000 fps
Color space : YUV
Chroma subsampling : 4:2:0
Bit depth : 8 bits
Scan type : Progressive
Bits/(Pixel*Frame) : 0.092
Stream size : 567 MiB (86%)
Writing library : x264 core 148 r2638M 7599210
Encoding settings : cabac=1 / ref=10 / deblock=1:-3:-3 / analyse=0x3:0x133 / me=umh / subme=10 / psy=1 / psy_rd=1.00:0.10 / mixed_ref=1 / me_range=32 / chroma_me=1 / trellis=2 / 8x8dct=1 / cqm=0 / deadzone=21,11 / fast_pskip=0 / chroma_qp_offset=-3 / threads=5 / lookahead_threads=1 / sliced_threads=0 / nr=0 / decimate=1 / interlaced=0 / bluray_compat=0 / constrained_intra=0 / bframes=9 / b_pyramid=2 / b_adapt=2 / b_bias=0 / direct=1 / weightb=1 / open_gop=0 / weightp=2 / keyint=250 / keyint_min=25 / scenecut=40 / intra_refresh=0 / rc=crf / mbtree=0 / crf=17.0 / qcomp=0.60 / qpmin=17 / qpmax=69 / qpstep=4 / ip_ratio=1.40 / pb_ratio=1.30 / aq=1:1.00
Default : Yes
Forced : No
DURATION : 00:58:17.120000000

Audio
ID : 2
Format : AC-3
Format/Info : Audio Coding 3
Mode extension : CM (complete main)
Format settings, Endianness : Big
Codec ID : A_AC3
Duration : 58mn 17s
Bit rate mode : Constant
Bit rate : 192 Kbps
Channel(s) : 2 channels
Channel positions : Front: L R
Sampling rate : 48.0 KHz
Frame rate : 31.250 fps (1536 spf)
Bit depth : 32 bits
Compression mode : Lossy
Stream size : 80.0 MiB (12%)
Language : Russian
Default : Yes
Forced : No
DURATION : 00:58:15.904000000

Menu
00:00:00.000 : :00:00:00.000
00:10:47.320 : :00:10:47.320
00:21:19.200 : :00:21:19.200
00:31:46.520 : :00:31:46.520
00:41:16.440 : :00:41:16.440
00:48:53.520 : :00:48:53.520
00:57:56.120 : :00:57:56.120







Скачать Мост.Bron.Broen.(сезон.03).(Хенрик.Георгссон.и.др.).[2015.триллер.криминал.детектив.HDRip-AVC].[MVO.(Amedia)].torrent без регистрации
Золото ЗОЛОТАЯ РАЗДАЧА! СКАЧАННОЕ НЕ ЗАСЧИТЫВАЕТСЯ! Золото
Дата: Зарегистрирован   [ Тип: внутренний ] Как тут cкачать?
MAGNET ссылка
MAGNET ссылка


Скачать .torrent

17 KB

Статус: проверено DHT
Скачан: торрент - 59 раз, раздача полностью - 33 раз
Размер: 6,21 GB
Оценка:  - (Голосов: 0)
Поблагодарили: 0
Поделиться ссылкой на эту раздачу с друзьями:
В контактеFacebookОдноклассникиTwitterLivejournalМой МирLiveinternet
 

 
Показать сообщения:    


Вы не можете начинать темы
Вы не можете отвечать на сообщения
Вы не можете редактировать свои сообщения
Вы не можете удалять свои сообщения
Вы не можете голосовать в опросах
Вы не можете прикреплять файлы к сообщениям
Вы можете скачивать файлы