Loading...
Error

Скачать Сила Айкидо / Gekitotsu! Aikidо (Power of Aikido) (Сигехиро Озава) [1975, боевые искусства, DVDRip] [AVO (Кузнецов)] торрент без регистрации

 
Статистика раздачи
Размер:  744 MB   |    Скачан:  53 раза
Сидов:  1  [  0 KB/s  ]  
 
Автор Сообщение

Marsianka

[] 

Информация о фильме
Название: Сила Айкидо
Оригинальное название: Gekitotsu! Aikidо (Power of Aikido)
Год выхода: 1975
Жанр: боевые искусства
Режиссер: Сигехиро Озава / Shigehiro Ozawa
В ролях: Сони Чиба, Дзиро Чиба, Ёко Коидзуми, Рюносукэ Канэда, Цунэхико Ватасэ

О фильме:
Фильм о начале пути мастера Морихея Уэсибы. О том времени, когда молодой фермер с Хоккайдо только начинал осваивать азы будо и не видел в борьбе никакого иного смысла, кроме банальной физической расправы над врагом.
Действие картины начинается примерно в 1912 году, когда судьба впервые сталкивает Морихея с мастером каратэ Синбэем Натори. В тот памятный день Морихей вступается за сбежавшего от бандитов ребенка и вынужден драться с Синбэем. Жестоко избитый и искалеченный, он клянется отомстить и ищет человека, который сделает из него настоящего бойца. После знакомства с несколькими мошенниками и преступниками Морихей наконец встречает знаменитого мастера Сокаку Такэду, который берет его в ученики и со временем меняет его отношение к боевым искусствам.


Страна: Япония
Продолжительность: 01:21:45
Перевод: Одноголосый закадровый (авторский) Кузнецов

Файл
Кодек: XviD
Качество: DVDRip
Видео: 608x256 (2.38:1), 23.976 fps, XviD build 73 ~1135 kbps avg, 0.30 bit/pixel
Звук: 48 kHz, MPEG Layer 3, 2 ch, ~128.00 kbps avg
Субтитры: Отсутствует
Семпл

Так как источник не очень хорошего качества рип выполнен по максимуму в 3 прогона
General
Complete name : E:Изготовление риповGekitotsu! Aikido (Shigehiro Ozawa, 1975) DVDrip by shkiper.avi
Format : AVI
Format/Info : Audio Video Interleave
File size : 744 MiB
Duration : 1h 21mn
Overall bit rate : 1 273 Kbps
Writing application : VirtualDubMod 1.5.10.3 | www.virtualdub-fr.org || (build 2550/release)
Writing library : VirtualDubMod build 2550/release

Video
ID : 0
Format : MPEG-4 Visual
Format profile : Advanced Simple@L5
Format settings, BVOP : 1
Format settings, QPel : No
Format settings, GMC : No warppoints
Format settings, Matrix : Custom
Codec ID : XVID
Codec ID/Hint : XviD
Duration : 1h 21mn
Bit rate : 1 136 Kbps
Width : 608 pixels
Height : 256 pixels
Display aspect ratio : 2.40:1
Frame rate : 23.976 fps
Color space : YUV
Chroma subsampling : 4:2:0
Bit depth : 8 bits
Scan type : Progressive
Compression mode : Lossy
Bits/(Pixel*Frame) : 0.304
Stream size : 664 MiB (89%)
Writing library : XviD 73

Audio
ID : 1
Format : MPEG Audio
Format version : Version 1
Format profile : Layer 3
Mode : Joint stereo
Mode extension : MS Stereo
Codec ID : 55
Codec ID/Hint : MP3
Duration : 1h 21mn
Bit rate mode : Constant
Bit rate : 128 Kbps
Channel(s) : 2 channels
Sampling rate : 48.0 KHz
Compression mode : Lossy
Stream size : 74.8 MiB (10%)
Alignment : Aligned on interleaves
Interleave, duration : 42 ms (1.00 video frame)
Interleave, preload duratio : 504 ms
Writing library : LAME3.99r
Encoding settings : -m j -V 4 -q 2 -lowpass 17 -b 128
Релиз от:



Скачать Сила.Айкидо.Gekitotsu!.Aikidо.(Power.of.Aikido).(Сигехиро.Озава).[1975.боевые.искусства.DVDRip].[AVO.(Кузнецов)].torrent без регистрации
Золото ЗОЛОТАЯ РАЗДАЧА! СКАЧАННОЕ НЕ ЗАСЧИТЫВАЕТСЯ! Золото
Дата: Зарегистрирован   [ Тип: внутренний ] Как тут cкачать?
MAGNET ссылка
MAGNET ссылка


Скачать .torrent

15 KB

Статус: проверено DHT
Скачан: торрент - 53 раз, раздача полностью - 22 раз
Размер: 744 MB
Оценка:  - (Голосов: 0)
Поблагодарили: 1
Поделиться ссылкой на эту раздачу с друзьями:
В контактеFacebookОдноклассникиTwitterLivejournalМой МирLiveinternet
 

 
Показать сообщения:    


Вы не можете начинать темы
Вы не можете отвечать на сообщения
Вы не можете редактировать свои сообщения
Вы не можете удалять свои сообщения
Вы не можете голосовать в опросах
Вы не можете прикреплять файлы к сообщениям
Вы можете скачивать файлы