Loading...
Error

Скачать Кровавый алмаз / Blood Diamond (Эдвард Цвик) [2006, триллер, боевик, драма, приключения, BDRip] [Dub]+[AVO (А. Гаврилов, С. Рябов)]x2 торрент без регистрации

Статистика раздачи
Размер:  2,91 GB   |    Скачан:  64 раза

Полного источника не было: 25 минут

 
 
 
Автор Сообщение

Marsianka

[] 

Информация о фильме
Название: Кровавый алмаз
Оригинальное название: Blood Diamond
Год выхода: 2006
Жанр: триллер, боевик, драма, приключения
Режиссёр: Эдвард Цвик
В ролях: Леонардо ДиКаприо, Дженнифер Коннелли, Джимон Хунсу, Стивен Коллинз, Энтони Коулмэн, Арнольд Вослу, Джими Мистри, Майкл Шин, Базил Уоллес, Мариус Уэйерс, Дэвид Хэрвуд, Нтэйр Мвин, Ато Эссонда, Тони Кгороге, Грант Суэнби, Адетокумбо М'Кормак, Карл МакМиллан, Дэвид С. Ли, Джонатан Пиенаар, Сонни Чидиэбере, Тайрон Кеог, Уинстон Нтшона, Найджел Харман, Клер Холман, Натаниель Рамабулана, Перси Матсемела, Ник Рединг, Клеменс Беккер, Акин Омотосо, Карен Хааке

О фильме: Действие фильма разворачивается на фоне гражданской войны и хаоса 90-х в Сьерра-Леоне. "Кровавый алмаз" - история Дэнни Арчера, южноафриканского наёмника и контрабандиста, и Соломона Вэнди, рыболова из народности менде. Оба они - африканцы с абсолютно непохожими судьбами, но их объединяет обоюдное желание разыскать редчайший розовый алмаз, который может кардинально изменить их жизни. Находясь в тюрьме за перевоз контрабанды, Арчер узнаёт, что Соломон, которого разлучили с семьей и отправили работать на алмазные рудники, нашёл и спрятал удивительный самородок. При помощи Мэдди Бауэн, американской журналистки, чей идеализм во многом обусловлен её особым отношением к Арчеру, двое мужчин отправляются через территорию мятежников в путешествие, которое могло бы спасти семью Соломона и дать Арчеру ещё один шанс, на который тот уже и не рассчитывал.



Страна: США, Германия, Bedford Falls Productions, Initial Entertainment Group, Spring Creek Productions, Warner Bros. Pictures
Продолжительность: 02:23:21
Перевод: Дублированный (Мосфильм-Мастер), авторский одноголосый (А. Гаврилов), авторский одноголосый (С. Рябов)
Оригинальная аудио-дорожка: Нет
Субтитры: Нет

Файл
Формат: AVI
Кодек: XviD
Качество: BDRip [Исходник: Blu-ray Remux (1080p) от HDClub]
Видео: XviD, 688x288 (2.40:1), 1743 Кбит/с, 23.976 кадр/с, 0.367 bit/pixel
Аудио #1: Русский, Dolby AC3, 48000 Гц, 384 Кбит/с, 6 каналов (5.1) - DUB [Мосфильм-Мастер]
Аудио #2: Русский, Dolby AC3, 48000 Гц, 384 Кбит/с, 6 каналов (5.1) - AVO [А. Гаврилов]
Аудио #3: Русский, Dolby AC3, 48000 Гц, 384 Кбит/с, 6 каналов (5.1) - AVO [С. Рябов]
General
Complete name : Blood.Diamond.2006.Triple.BDRip.avi
Format : AVI
Format/Info : Audio Video Interleave
Format profile : OpenDML
File size : 2.91 GiB
Duration : 2h 23mn
Overall bit rate : 2 910 Kbps
Writing application : VirtualDubMod 1.5.10.3 | www.virtualdub-fr.org || (build 2550/release)
Writing library : VirtualDubMod build 2550/release
Copyright : rip by ivandubskoj

Video
ID : 0
Format : MPEG-4 Visual
Format profile : Advanced Simple@L5
Format settings, BVOP : 1
Format settings, QPel : No
Format settings, GMC : No warppoints
Format settings, Matrix : Custom
Codec ID : XVID
Codec ID/Hint : XviD
Duration : 2h 23mn
Bit rate : 1 743 Kbps
Width : 688 pixels
Height : 288 pixels
Display aspect ratio : 2.40:1
Frame rate : 23.976 fps
Color space : YUV
Chroma subsampling : 4:2:0
Bit depth : 8 bits
Scan type : Progressive
Compression mode : Lossy
Bits/(Pixel*Frame) : 0.367
Stream size : 1.75 GiB (60%)
Writing library : XviD 73

Audio #1
ID : 1
Format : AC-3
Format/Info : Audio Coding 3
Mode extension : CM (complete main)
Codec ID : 2000
Duration : 2h 23mn
Bit rate mode : Constant
Bit rate : 384 Kbps
Channel(s) : 6 channels
Channel positions : Front: L C R, Side: L R, LFE
Sampling rate : 48.0 KHz
Bit depth : 16 bits
Compression mode : Lossy
Stream size : 394 MiB (13%)
Alignment : Split accross interleaves
Interleave, duration : 64 ms (1.53 video frames)
Interleave, preload duration : 500 ms
Title : Russian, DUB [Мосфильм-Мастер]

Audio #2
ID : 2
Format : AC-3
Format/Info : Audio Coding 3
Mode extension : CM (complete main)
Codec ID : 2000
Duration : 2h 23mn
Bit rate mode : Constant
Bit rate : 384 Kbps
Channel(s) : 6 channels
Channel positions : Front: L C R, Side: L R, LFE
Sampling rate : 48.0 KHz
Bit depth : 16 bits
Compression mode : Lossy
Stream size : 394 MiB (13%)
Alignment : Split accross interleaves
Interleave, duration : 64 ms (1.53 video frames)
Interleave, preload duration : 500 ms
Title : Russian, AVO [А. Гаврилов]

Audio #3
ID : 3
Format : AC-3
Format/Info : Audio Coding 3
Mode extension : CM (complete main)
Codec ID : 2000
Duration : 2h 23mn
Bit rate mode : Constant
Bit rate : 384 Kbps
Channel(s) : 6 channels
Channel positions : Front: L C R, Side: L R, LFE
Sampling rate : 48.0 KHz
Bit depth : 16 bits
Compression mode : Lossy
Stream size : 394 MiB (13%)
Alignment : Split accross interleaves
Interleave, duration : 64 ms (1.53 video frames)
Interleave, preload duration : 500 ms
Title : Russian, AVO [С. Рябов]
Автор рипа - ivandubskoj



Скачать Кровавый.алмаз.Blood.Diamond.(Эдвард.Цвик).[2006.триллер.боевик.драма.приключения.BDRip].[Dub]+[AVO.(А.Гаврилов.С.Рябов)]x2.torrent без регистрации
Золото ЗОЛОТАЯ РАЗДАЧА! СКАЧАННОЕ НЕ ЗАСЧИТЫВАЕТСЯ! Золото
Дата: Зарегистрирован   [ Тип: внутренний ] Как тут cкачать?
MAGNET ссылка
MAGNET ссылка


Скачать .torrent

15 KB

Статус: проверено DHT
Скачан: торрент - 64 раз, раздача полностью - 37 раз
Размер: 2,91 GB
Оценка:  4 (Голосов: 1)
Поблагодарили: 0
Поделиться ссылкой на эту раздачу с друзьями:
В контактеFacebookОдноклассникиTwitterLivejournalМой МирLiveinternet
 

 
Показать сообщения:    


Вы не можете начинать темы
Вы не можете отвечать на сообщения
Вы не можете редактировать свои сообщения
Вы не можете удалять свои сообщения
Вы не можете голосовать в опросах
Вы не можете прикреплять файлы к сообщениям
Вы можете скачивать файлы